armv6-hf-linux-gcc-4.8 v13_dev0-1217-g825e463a1

Architecturearm
Variantarmv6
CPUarmv6
OSlinux
Ownermartin
Compilergcc 4.8.3 (crosstool-NG linaro-1.13.1-4.8-2014.01 - Linaro GCC 2013.11) 20140106 (prerelease)
Configuration--prefix=/home/martin/fate/install --samples=/home/martin/fate/samples --enable-gpl --arch=arm --cpu=armv6 --cross-prefix=arm-linux-gnueabihf- --target-os=linux --target-exec='ssh rpi' --extra-cflags='-isystem/home/martin/rpi-env/opt/vc/include -isystem/home/martin/rpi-env/opt/vc/include/interface/vcos/pthreads -isystem/home/martin/rpi-env/opt/vc/include/interface/vmcs_host/linux -I/home/martin/rpi-env/opt/vc/include/IL -fgnu89-inline' --extra-ldflags='-L/home/martin/rpi-env/opt/vc/lib -Wl,-rpath-link,/home/martin/rpi-env/opt/vc/lib' --enable-mmal --enable-omx-rpi
CommentMMAL, OpenMAX
Revisionv13_dev0-1217-g825e463a1
Date2017-07-12 09:50:20
Status2108 / 2110
Warnings63
Logscompile configure test
2 failed testsStatusLast good rev
diffstderracodec-pcm-alaw1v13_dev0-1406-g136e7cf64
--- /home/martin/fate/src/tests/ref/acodec/pcm-alaw	2013-01-25 12:11:41.662862877 +0200
+++ tests/data/fate/acodec-pcm-alaw	2017-07-12 08:55:12.467514940 +0300
@@ -1,4 +0,0 @@
-a2dd6a934ec6d5ec901a211652e85227 *tests/data/fate/acodec-pcm-alaw.wav
-529258 tests/data/fate/acodec-pcm-alaw.wav
-f323f7551ffad91de8613f44dcb198b6 *tests/data/fate/acodec-pcm-alaw.out.wav
-stddev:  101.67 PSNR: 56.19 MAXDIFF:  515 bytes:  1058400/  1058400
avconv version v13_dev0-1217-g825e463a1, Copyright (c) 2000-2017 the Libav developers
  built on Jul 12 2017 08:47:22 with gcc 4.8.3 (crosstool-NG linaro-1.13.1-4.8-2014.01 - Linaro GCC 2013.11) 20140106 (prerelease)
/home/martin/fate/build/tests/data/asynth-44100-2.wav: Invalid data found when processing input
diffstderrh264-conformance-cvmaqp2_sony_g255v13_dev0-1406-g136e7cf64
--- /home/martin/fate/src/tests/ref/fate/h264-conformance-cvmaqp2_sony_g	2013-01-25 12:11:41.674862749 +0200
+++ tests/data/fate/h264-conformance-cvmaqp2_sony_g	2017-07-12 10:43:38.480131192 +0300
@@ -1,18 +0,0 @@
-#tb 0: 1/25
-0,          0,          0,        1,    36864, 0xdee3d4e3
-0,          1,          1,        1,    36864, 0xaa1a67ca
-0,          2,          2,        1,    36864, 0xe00e0dec
-0,          3,          3,        1,    36864, 0x31f0b63f
-0,          4,          4,        1,    36864, 0xd0cc34d9
-0,          5,          5,        1,    36864, 0x3e76eba5
-0,          6,          6,        1,    36864, 0x0e7dcc9c
-0,          7,          7,        1,    36864, 0xd71bc457
-0,          8,          8,        1,    36864, 0x11c81ebe
-0,          9,          9,        1,    36864, 0x1d4ca6d7
-0,         10,         10,        1,    36864, 0xb191d155
-0,         11,         11,        1,    36864, 0x435a188c
-0,         12,         12,        1,    36864, 0x99d7227c
-0,         13,         13,        1,    36864, 0x700637fc
-0,         14,         14,        1,    36864, 0x351f7dd3
-0,         15,         15,        1,    36864, 0x1658c18b
-0,         16,         16,        1,    36864, 0x60034b90
No output on stderr