armv6-hf-linux-gcc-4.8 v13_dev0-1128-g3daaa44

Architecturearm
Variantarmv6
CPUarmv6
OSlinux
Ownermartin
Compilergcc 4.8.3 (crosstool-NG linaro-1.13.1-4.8-2014.01 - Linaro GCC 2013.11) 20140106 (prerelease)
Configuration--prefix=/home/martin/fate/install --samples=/home/martin/fate/samples --enable-gpl --arch=arm --cpu=armv6 --cross-prefix=arm-linux-gnueabihf- --target-os=linux --target-exec='ssh rpi' --extra-cflags='-isystem/home/martin/rpi-env/opt/vc/include -isystem/home/martin/rpi-env/opt/vc/include/interface/vcos/pthreads -isystem/home/martin/rpi-env/opt/vc/include/interface/vmcs_host/linux -I/home/martin/rpi-env/opt/vc/include/IL -fgnu89-inline' --extra-ldflags='-L/home/martin/rpi-env/opt/vc/lib -Wl,-rpath-link,/home/martin/rpi-env/opt/vc/lib' --enable-mmal --enable-omx-rpi
CommentMMAL, OpenMAX
Revisionv13_dev0-1128-g3daaa44
Date2017-05-17 09:48:25
Status2107 / 2109
Warnings65
Logscompile configure test
2 failed testsStatusLast good rev
diffstderrfilter-pixfmts-crop1v13_dev0-1405-g3152058bf
--- /home/martin/fate/src/tests/ref/fate/filter-pixfmts-crop	2015-05-11 08:45:07.342524216 +0300
+++ tests/data/fate/filter-pixfmts-crop	2017-05-17 09:59:42.234797310 +0300
@@ -1,6 +1,5 @@
 abgr                5f70a21347bce16111a36fc41a117df8
-argb                35801018bb35dcb0ee31f66f0090b890
-bgr24               f9cc271089a5b560f29d9614f357c720
+argb                bgr24               f9cc271089a5b560f29d9614f357c720
 bgr48be             8d957f7b11ed446dcea5f76c164f2368
 bgr48le             2a72cdae677d2c190b5beefd7e8a0e53
 bgr4_byte           8612d21fb5c353bdcf3eecb66a0bb0c3
Detected 1 logical cores.
Detected 1 logical cores.
avconv version v13_dev0-1128-g3daaa44, Copyright (c) 2000-2017 the Libav developers
  built on May 17 2017 08:47:31 with gcc 4.8.3 (crosstool-NG linaro-1.13.1-4.8-2014.01 - Linaro GCC 2013.11) 20140106 (prerelease)
Input #0, image2, from '/home/martin/fate/build/tests/vsynth1/%02d.pgm':
  Duration: 00:00:02.00, start: 0.000000, bitrate: N/A
    Stream #0:0: Video: pgmyuv
      yuv420p, 352x288
      25 fps, 25 tbn
Stream mapping:
  Stream #0:0 -> #0:0 (pgmyuv (native) -> rawvideo (native))
Press ctrl-c to stop encoding
Output #0, nut, to 'md5:':
    Stream #0:0: Video: rawvideo [ABGR / 0x52474241]
      abgr, 100x100, q=2-31, 200 kb/s
      25 tbn
    Metadata:
      encoder         : rawvideo
frame=    1 fps=  0 q=-0.0 Lsize=      39kB time=10000000000.00 bitrate=   0.0kbits/s    
video:39kB audio:0kB other streams:0kB global headers:0kB muxing overhead: 0.432500%
avconv version v13_dev0-1128-g3daaa44, Copyright (c) 2000-2017 the Libav developers
  built on May 17 2017 08:47:31 with gcc 4.8.3 (crosstool-NG linaro-1.13.1-4.8-2014.01 - Linaro GCC 2013.11) 20140106 (prerelease)
Input #0, image2, from '/home/martin/fate/build/tests/vsynth1/%02d.pgm':
  Duration: 00:00:02.00, start: 0.000000, bitrate: N/A
    Stream #0:0: Video: pgmyuv
      yuv420p, 352x288
      25 fps, 25 tbn
Stream mapping:
  Stream #0:0 -> #0:0 (pgmyuv (native) -> rawvideo (native))
Press ctrl-c to stop encoding
Output #0, nut, to 'md5:':
    Stream #0:0: Video: rawvideo [BGR[24] / 0x18524742]
      bgr24, 100x100, q=2-31, 200 kb/s
      25 tbn
    Metadata:
      encoder         : rawvideo
frame=    1 fps=  0 q=-0.0 Lsize=      29kB time=10000000000.00 bitrate=   0.0kbits/s    
video:29kB audio:0kB other streams:0kB global headers:0kB muxing overhead: 0.576667%
avconv version v13_dev0-1128-g3daaa44, Copyright (c) 2000-2017 the Libav developers
  built on May 17 2017 08:47:31 with gcc 4.8.3 (crosstool-NG linaro-1.13.1-4.8-2014.01 - Linaro GCC 2013.11) 20140106 (prerelease)
Input #0, image2, from '/home/martin/fate/build/tests/vsynth1/%02d.pgm':
  Duration: 00:00:02.00, start: 0.000000, bitrate: N/A
    Stream #0:0: Video: pgmyuv
      yuv420p, 352x288
      25 fps, 25 tbn
Stream mapping:
  Stream #0:0 -> #0:0 (pgmyuv (native) -> rawvideo (native))
Press ctrl-c to stop encoding
Output #0, nut, to 'md5:':
    Stream #0:0: Video: rawvideo [0BGR / 0x52474230]
      bgr48be, 100x100, q=2-31, 200 kb/s
      25 tbn
    Metadata:
      encoder         : rawvideo
frame=    1 fps=  0 q=-0.0 Lsize=      59kB time=10000000000.00 bitrate=   0.0kbits/s    
video:59kB audio:0kB other streams:0kB global headers:0kB muxing overhead: 0.288333%
avconv version v13_dev0-1128-g3daaa44, Copyright (c) 2000-2017 the Libav developers
  built on May 17 2017 08:47:31 with gcc 4.8.3 (crosstool-NG linaro-1.13.1-4.8-2014.01 - Linaro GCC 2013.11) 20140106 (prerelease)
Input #0, image2, from '/home/martin/fate/build/tests/vsynth1/%02d.pgm':
  Duration: 00:00:02.00, start: 0.000000, bitrate: N/A
    Stream #0:0: Video: pgmyuv
      yuv420p, 352x288
      25 fps, 25 tbn
Stream mapping:
  Stream #0:0 -> #0:0 (pgmyuv (native) -> rawvideo (native))
Press ctrl-c to stop encoding
Output #0, nut, to 'md5:':
    Stream #0:0: Video: rawvideo [BGR0 / 0x30524742]
      bgr48le, 100x100, q=2-31, 200 kb/s
      25 tbn
    Metadata:
      encoder         : rawvideo
frame=    1 fps=  0 q=-0.0 Lsize=      59kB time=10000000000.00 bitrate=   0.0kbits/s    
video:59kB audio:0kB other streams:0kB global headers:0kB muxing overhead: 0.288333%
avconv version v13_dev0-1128-g3daaa44, Copyright (c) 2000-2017 the Libav developers
  built on May 17 2017 08:47:31 with gcc 4.8.3 (crosstool-NG linaro-1.13.1-4.8-2014.01 - Linaro GCC 2013.11) 20140106 (prerelease)
Input #0, image2, from '/home/martin/fate/build/tests/vsynth1/%02d.pgm':
  Duration: 00:00:02.00, start: 0.000000, bitrate: N/A
    Stream #0:0: Video: pgmyuv
      yuv420p, 352x288
      25 fps, 25 tbn
Stream mapping:
  Stream #0:0 -> #0:0 (pgmyuv (native) -> rawvideo (native))
Press ctrl-c to stop encoding
Output #0, nut, to 'md5:':
    Stream #0:0: Video: rawvideo [R4BY / 0x59423452]
      bgr4_byte, 100x100, q=2-31, 200 kb/s
      25 tbn
    Metadata:
      encoder         : rawvideo
frame=    1 fps=  0 q=-0.0 Lsize=      10kB time=10000000000.00 bitrate=   0.0kbits/s    
video:10kB audio:0kB other streams:0kB global headers:0kB muxing overhead: 1.720000%
avconv version v13_dev0-1128-g3daaa44, Copyright (c) 2000-2017 the Libav developers
  built on May 17 2017 08:47:31 with gcc 4.8.3 (crosstool-NG linaro-1.13.1-4.8-2014.01 - Linaro GCC 2013.11) 20140106 (prerelease)
Input #0, image2, from '/home/martin/fate/build/tests/vsynth1/%02d.pgm':
  Duration: 00:00:02.00, start: 0.000000, bitrate: N/A
    Stream #0:0: Video: pgmyuv
      yuv420p, 352x288
      25 fps, 25 tbn
Stream mapping:
  Stream #0:0 -> #0:0 (pgmyuv (native) -> rawvideo (native))
Press ctrl-c to stop encoding
Output #0, nut, to 'md5:':
    Stream #0:0: Video: rawvideo [[15]RGB / 0x4247520F]
      bgr555be, 100x100, q=2-31, 200 kb/s
      25 tbn
    Metadata:
      encoder         : rawvideo
frame=    1 fps=  0 q=-0.0 Lsize=      20kB time=10000000000.00 bitrate=   0.0kbits/s    
video:20kB audio:0kB other streams:0kB global headers:0kB muxing overhead: 0.865000%
avconv version v13_dev0-1128-g3daaa44, Copyright (c) 2000-2017 the Libav developers
  built on May 17 2017 08:47:31 with gcc 4.8.3 (crosstool-NG linaro-1.13.1-4.8-2014.01 - Linaro GCC 2013.11) 20140106 (prerelease)
Input #0, image2, from '/home/martin/fate/build/tests/vsynth1/%02d.pgm':
  Duration: 00:00:02.00, start: 0.000000, bitrate: N/A
    Stream #0:0: Video: pgmyuv
      yuv420p, 352x288
      25 fps, 25 tbn
Stream mapping:
  Stream #0:0 -> #0:0 (pgmyuv (native) -> rawvideo (native))
Press ctrl-c to stop encoding
Output #0, nut, to 'md5:':
    Stream #0:0: Video: rawvideo [BGR[15] / 0xF524742]
      bgr555le, 100x100, q=2-31, 200 kb/s
      25 tbn
    Metadata:
      encoder         : rawvideo
frame=    1 fps=  0 q=-0.0 Lsize=      20kB time=10000000000.00 bitrate=   0.0kbits/s    
video:20kB audio:0kB other streams:0kB global headers:0kB muxing overhead: 0.865000%
avconv version v13_dev0-1128-g3daaa44, Copyright (c) 2000-2017 the Libav developers
  built on May 17 2017 08:47:31 with gcc 4.8.3 (crosstool-NG linaro-1.13.1-4.8-2014.01 - Linaro GCC 2013.11) 20140106 (prerelease)
Input #0, image2, from '/home/martin/fate/build/tests/vsynth1/%02d.pgm':
  Duration: 00:00:02.00, start: 0.000000, bitrate: N/A
    Stream #0:0: Video: pgmyuv
      yuv420p, 352x288
      25 fps, 25 tbn
Stream mapping:
  Stream #0:0 -> #0:0 (pgmyuv (native) -> rawvideo (native))
Press ctrl-c to stop encoding
Output #0, nut, to 'md5:':
    Stream #0:0: Video: rawvideo [[16]RGB / 0x42475210]
      bgr565be, 100x100, q=2-31, 200 kb/s
      25 tbn
    Metadata:
      encoder         : rawvideo
frame=    1 fps=  0 q=-0.0 Lsize=      20kB time=10000000000.00 bitrate=   0.0kbits/s    
video:20kB audio:0kB other streams:0kB global headers:0kB muxing overhead: 0.865000%
avconv version v13_dev0-1128-g3daaa44, Copyright (c) 2000-2017 the Libav developers
  built on May 17 2017 08:47:31 with gcc 4.8.3 (crosstool-NG linaro-1.13.1-4.8-2014.01 - Linaro GCC 2013.11) 20140106 (prerelease)
Input #0, image2, from '/home/martin/fate/build/tests/vsynth1/%02d.pgm':
  Duration: 00:00:02.00, start: 0.000000, bitrate: N/A
    Stream #0:0: Video: pgmyuv
      yuv420p, 352x288
      25 fps, 25 tbn
Stream mapping:
  Stream #0:0 -> #0:0 (pgmyuv (native) -> rawvideo (native))
Press ctrl-c to stop encoding
Output #0, nut, to 'md5:':
    Stream #0:0: Video: rawvideo [BGR[16] / 0x10524742]
      bgr565le, 100x100, q=2-31, 200 kb/s
      25 tbn
    Metadata:
      encoder         : rawvideo
frame=    1 fps=  0 q=-0.0 Lsize=      20kB time=10000000000.00 bitrate=   0.0kbits/s    
video:20kB audio:0kB other streams:0kB global headers:0kB muxing overhead: 0.865000%
avconv version v13_dev0-1128-g3daaa44, Copyright (c) 2000-2017 the Libav developers
  built on May 17 2017 08:47:31 with gcc 4.8.3 (crosstool-NG linaro-1.13.1-4.8-2014.01 - Linaro GCC 2013.11) 20140106 (prerelease)
Input #0, image2, from '/home/martin/fate/build/tests/vsynth1/%02d.pgm':
  Duration: 00:00:02.00, start: 0.000000, bitrate: N/A
    Stream #0:0: Video: pgmyuv
      yuv420p, 352x288
      25 fps, 25 tbn
Stream mapping:
  Stream #0:0 -> #0:0 (pgmyuv (native) -> rawvideo (native))
Press ctrl-c to stop encoding
Output #0, nut, to 'md5:':
    Stream #0:0: Video: rawvideo [BGR[8] / 0x8524742]
      bgr8, 100x100, q=2-31, 200 kb/s
      25 tbn
    Metadata:
      encoder         : rawvideo
frame=    1 fps=  0 q=-0.0 Lsize=      10kB time=10000000000.00 bitrate=   0.0kbits/s    
video:10kB audio:0kB other streams:0kB global headers:0kB muxing overhead: 1.720000%
avconv version v13_dev0-1128-g3daaa44, Copyright (c) 2000-2017 the Libav developers
  built on May 17 2017 08:47:31 with gcc 4.8.3 (crosstool-NG linaro-1.13.1-4.8-2014.01 - Linaro GCC 2013.11) 20140106 (prerelease)
Input #0, image2, from '/home/martin/fate/build/tests/vsynth1/%02d.pgm':
  Duration: 00:00:02.00, start: 0.000000, bitrate: N/A
    Stream #0:0: Video: pgmyuv
      yuv420p, 352x288
      25 fps, 25 tbn
Stream mapping:
  Stream #0:0 -> #0:0 (pgmyuv (native) -> rawvideo (native))
Press ctrl-c to stop encoding
Output #0, nut, to 'md5:':
    Stream #0:0: Video: rawvideo [BGRA / 0x41524742]
      bgra, 100x100, q=2-31, 200 kb/s
      25 tbn
    Metadata:
      encoder         : rawvideo
frame=    1 fps=  0 q=-0.0 Lsize=      39kB time=10000000000.00 bitrate=   0.0kbits/s    
video:39kB audio:0kB other streams:0kB global headers:0kB muxing overhead: 0.432500%
avconv version v13_dev0-1128-g3daaa44, Copyright (c) 2000-2017 the Libav developers
  built on May 17 2017 08:47:31 with gcc 4.8.3 (crosstool-NG linaro-1.13.1-4.8-2014.01 - Linaro GCC 2013.11) 20140106 (prerelease)
Input #0, image2, from '/home/martin/fate/build/tests/vsynth1/%02d.pgm':
  Duration: 00:00:02.00, start: 0.000000, bitrate: N/A
    Stream #0:0: Video: pgmyuv
      yuv420p, 352x288
      25 fps, 25 tbn
Stream mapping:
  Stream #0:0 -> #0:0 (pgmyuv (native) -> rawvideo (native))
Press ctrl-c to stop encoding
Output #0, nut, to 'md5:':
    Stream #0:0: Video: rawvideo [Y800 / 0x30303859]
      gray, 100x100, q=2-31, 200 kb/s
      25 tbn
    Metadata:
      encoder         : rawvideo
frame=    1 fps=  0 q=-0.0 Lsize=      10kB time=10000000000.00 bitrate=   0.0kbits/s    
video:10kB audio:0kB other streams:0kB global headers:0kB muxing overhead: 1.720000%
avconv version v13_dev0-1128-g3daaa44, Copyright (c) 2000-2017 the Libav developers
  built on May 17 2017 08:47:31 with gcc 4.8.3 (crosstool-NG linaro-1.13.1-4.8-2014.01 - Linaro GCC 2013.11) 20140106 (prerelease)
Input #0, image2, from '/home/martin/fate/build/tests/vsynth1/%02d.pgm':
  Duration: 00:00:02.00, start: 0.000000, bitrate: N/A
    Stream #0:0: Video: pgmyuv
      yuv420p, 352x288
      25 fps, 25 tbn
Stream mapping:
  Stream #0:0 -> #0:0 (pgmyuv (native) -> rawvideo (native))
Press ctrl-c to stop encoding
Output #0, nut, to 'md5:':
    Stream #0:0: Video: rawvideo [[16][0]1Y / 0x59310010]
      gray16be, 100x100, q=2-31, 200 kb/s
      25 tbn
    Metadata:
      encoder         : rawvideo
frame=    1 fps=  0 q=-0.0 Lsize=      20kB time=10000000000.00 bitrate=   0.0kbits/s    
video:20kB audio:0kB other streams:0kB global headers:0kB muxing overhead: 0.865000%
avconv version v13_dev0-1128-g3daaa44, Copyright (c) 2000-2017 the Libav developers
  built on May 17 2017 08:47:31 with gcc 4.8.3 (crosstool-NG linaro-1.13.1-4.8-2014.01 - Linaro GCC 2013.11) 20140106 (prerelease)
Input #0, image2, from '/home/martin/fate/build/tests/vsynth1/%02d.pgm':
  Duration: 00:00:02.00, start: 0.000000, bitrate: N/A
    Stream #0:0: Video: pgmyuv
      yuv420p, 352x288
      25 fps, 25 tbn
Stream mapping:
  Stream #0:0 -> #0:0 (pgmyuv (native) -> rawvideo (native))
Press ctrl-c to stop encoding
Output #0, nut, to 'md5:':
    Stream #0:0: Video: rawvideo [Y1[0][16] / 0x10003159]
      gray16le, 100x100, q=2-31, 200 kb/s
      25 tbn
    Metadata:
      encoder         : rawvideo
frame=    1 fps=  0 q=-0.0 Lsize=      20kB time=10000000000.00 bitrate=   0.0kbits/s    
video:20kB audio:0kB other streams:0kB global headers:0kB muxing overhead: 0.865000%
avconv version v13_dev0-1128-g3daaa44, Copyright (c) 2000-2017 the Libav developers
  built on May 17 2017 08:47:31 with gcc 4.8.3 (crosstool-NG linaro-1.13.1-4.8-2014.01 - Linaro GCC 2013.11) 20140106 (prerelease)
Input #0, image2, from '/home/martin/fate/build/tests/vsynth1/%02d.pgm':
  Duration: 00:00:02.00, start: 0.000000, bitrate: N/A
    Stream #0:0: Video: pgmyuv
      yuv420p, 352x288
      25 fps, 25 tbn
Stream mapping:
  Stream #0:0 -> #0:0 (pgmyuv (native) -> rawvideo (native))
Press ctrl-c to stop encoding
Output #0, nut, to 'md5:':
    Stream #0:0: Video: rawvideo [RGB[24] / 0x18424752]
      rgb24, 100x100, q=2-31, 200 kb/s
      25 tbn
    Metadata:
      encoder         : rawvideo
frame=    1 fps=  0 q=-0.0 Lsize=      29kB time=10000000000.00 bitrate=   0.0kbits/s    
video:29kB audio:0kB other streams:0kB global headers:0kB muxing overhead: 0.576667%
avconv version v13_dev0-1128-g3daaa44, Copyright (c) 2000-2017 the Libav developers
  built on May 17 2017 08:47:31 with gcc 4.8.3 (crosstool-NG linaro-1.13.1-4.8-2014.01 - Linaro GCC 2013.11) 20140106 (prerelease)
Input #0, image2, from '/home/martin/fate/build/tests/vsynth1/%02d.pgm':
  Duration: 00:00:02.00, start: 0.000000, bitrate: N/A
    Stream #0:0: Video: pgmyuv
      yuv420p, 352x288
      25 fps, 25 tbn
Stream mapping:
  Stream #0:0 -> #0:0 (pgmyuv (native) -> rawvideo (native))
Press ctrl-c to stop encoding
Output #0, nut, to 'md5:':
    Stream #0:0: Video: rawvideo [0RGB / 0x42475230]
      rgb48be, 100x100, q=2-31, 200 kb/s
      25 tbn
    Metadata:
      encoder         : rawvideo
frame=    1 fps=  0 q=-0.0 Lsize=      59kB time=10000000000.00 bitrate=   0.0kbits/s    
video:59kB audio:0kB other streams:0kB global headers:0kB muxing overhead: 0.288333%
avconv version v13_dev0-1128-g3daaa44, Copyright (c) 2000-2017 the Libav developers
  built on May 17 2017 08:47:31 with gcc 4.8.3 (crosstool-NG linaro-1.13.1-4.8-2014.01 - Linaro GCC 2013.11) 20140106 (prerelease)
Input #0, image2, from '/home/martin/fate/build/tests/vsynth1/%02d.pgm':
  Duration: 00:00:02.00, start: 0.000000, bitrate: N/A
    Stream #0:0: Video: pgmyuv
      yuv420p, 352x288
      25 fps, 25 tbn
Stream mapping:
  Stream #0:0 -> #0:0 (pgmyuv (native) -> rawvideo (native))
Press ctrl-c to stop encoding
Output #0, nut, to 'md5:':
    Stream #0:0: Video: rawvideo [RGB0 / 0x30424752]
      rgb48le, 100x100, q=2-31, 200 kb/s
      25 tbn
    Metadata:
      encoder         : rawvideo
frame=    1 fps=  0 q=-0.0 Lsize=      59kB time=10000000000.00 bitrate=   0.0kbits/s    
video:59kB audio:0kB other streams:0kB global headers:0kB muxing overhead: 0.288333%
avconv version v13_dev0-1128-g3daaa44, Copyright (c) 2000-2017 the Libav developers
  built on May 17 2017 08:47:31 with gcc 4.8.3 (crosstool-NG linaro-1.13.1-4.8-2014.01 - Linaro GCC 2013.11) 20140106 (prerelease)
Input #0, image2, from '/home/martin/fate/build/tests/vsynth1/%02d.pgm':
  Duration: 00:00:02.00, start: 0.000000, bitrate: N/A
    Stream #0:0: Video: pgmyuv
      yuv420p, 352x288
      25 fps, 25 tbn
Stream mapping:
  Stream #0:0 -> #0:0 (pgmyuv (native) -> rawvideo (native))
Press ctrl-c to stop encoding
Output #0, nut, to 'md5:':
    Stream #0:0: Video: rawvideo [B4BY / 0x59423442]
      rgb4_byte, 100x100, q=2-31, 200 kb/s
      25 tbn
    Metadata:
      encoder         : rawvideo
frame=    1 fps=  0 q=-0.0 Lsize=      10kB time=10000000000.00 bitrate=   0.0kbits/s    
video:10kB audio:0kB other streams:0kB global headers:0kB muxing overhead: 1.720000%
avconv version v13_dev0-1128-g3daaa44, Copyright (c) 2000-2017 the Libav developers
  built on May 17 2017 08:47:31 with gcc 4.8.3 (crosstool-NG linaro-1.13.1-4.8-2014.01 - Linaro GCC 2013.11) 20140106 (prerelease)
Input #0, image2, from '/home/martin/fate/build/tests/vsynth1/%02d.pgm':
  Duration: 00:00:02.00, start: 0.000000, bitrate: N/A
    Stream #0:0: Video: pgmyuv
      yuv420p, 352x288
      25 fps, 25 tbn
Stream mapping:
  Stream #0:0 -> #0:0 (pgmyuv (native) -> rawvideo (native))
Press ctrl-c to stop encoding
Output #0, nut, to 'md5:':
    Stream #0:0: Video: rawvideo [[15]BGR / 0x5247420F]
      rgb555be, 100x100, q=2-31, 200 kb/s
      25 tbn
    Metadata:
      encoder         : rawvideo
frame=    1 fps=  0 q=-0.0 Lsize=      20kB time=10000000000.00 bitrate=   0.0kbits/s    
video:20kB audio:0kB other streams:0kB global headers:0kB muxing overhead: 0.865000%
avconv version v13_dev0-1128-g3daaa44, Copyright (c) 2000-2017 the Libav developers
  built on May 17 2017 08:47:31 with gcc 4.8.3 (crosstool-NG linaro-1.13.1-4.8-2014.01 - Linaro GCC 2013.11) 20140106 (prerelease)
Input #0, image2, from '/home/martin/fate/build/tests/vsynth1/%02d.pgm':
  Duration: 00:00:02.00, start: 0.000000, bitrate: N/A
    Stream #0:0: Video: pgmyuv
      yuv420p, 352x288
      25 fps, 25 tbn
Stream mapping:
  Stream #0:0 -> #0:0 (pgmyuv (native) -> rawvideo (native))
Press ctrl-c to stop encoding
Output #0, nut, to 'md5:':
    Stream #0:0: Video: rawvideo [RGB[15] / 0xF424752]
      rgb555le, 100x100, q=2-31, 200 kb/s
      25 tbn
    Metadata:
      encoder         : rawvideo
frame=    1 fps=  0 q=-0.0 Lsize=      20kB time=10000000000.00 bitrate=   0.0kbits/s    
video:20kB audio:0kB other streams:0kB global headers:0kB muxing overhead: 0.865000%
avconv version v13_dev0-1128-g3daaa44, Copyright (c) 2000-2017 the Libav developers
  built on May 17 2017 08:47:31 with gcc 4.8.3 (crosstool-NG linaro-1.13.1-4.8-2014.01 - Linaro GCC 2013.11) 20140106 (prerelease)
Input #0, image2, from '/home/martin/fate/build/tests/vsynth1/%02d.pgm':
  Duration: 00:00:02.00, start: 0.000000, bitrate: N/A
    Stream #0:0: Video: pgmyuv
      yuv420p, 352x288
      25 fps, 25 tbn
Stream mapping:
  Stream #0:0 -> #0:0 (pgmyuv (native) -> rawvideo (native))
Press ctrl-c to stop encoding
Output #0, nut, to 'md5:':
    Stream #0:0: Video: rawvideo [[16]BGR / 0x52474210]
      rgb565be, 100x100, q=2-31, 200 kb/s
      25 tbn
    Metadata:
      encoder         : rawvideo
frame=    1 fps=  0 q=-0.0 Lsize=      20kB time=10000000000.00 bitrate=   0.0kbits/s    
video:20kB audio:0kB other streams:0kB global headers:0kB muxing overhead: 0.865000%
avconv version v13_dev0-1128-g3daaa44, Copyright (c) 2000-2017 the Libav developers
  built on May 17 2017 08:47:31 with gcc 4.8.3 (crosstool-NG linaro-1.13.1-4.8-2014.01 - Linaro GCC 2013.11) 20140106 (prerelease)
Input #0, image2, from '/home/martin/fate/build/tests/vsynth1/%02d.pgm':
  Duration: 00:00:02.00, start: 0.000000, bitrate: N/A
    Stream #0:0: Video: pgmyuv
      yuv420p, 352x288
      25 fps, 25 tbn
Stream mapping:
  Stream #0:0 -> #0:0 (pgmyuv (native) -> rawvideo (native))
Press ctrl-c to stop encoding
Output #0, nut, to 'md5:':
    Stream #0:0: Video: rawvideo [RGB[16] / 0x10424752]
      rgb565le, 100x100, q=2-31, 200 kb/s
      25 tbn
    Metadata:
      encoder         : rawvideo
frame=    1 fps=  0 q=-0.0 Lsize=      20kB time=10000000000.00 bitrate=   0.0kbits/s    
video:20kB audio:0kB other streams:0kB global headers:0kB muxing overhead: 0.865000%
avconv version v13_dev0-1128-g3daaa44, Copyright (c) 2000-2017 the Libav developers
  built on May 17 2017 08:47:31 with gcc 4.8.3 (crosstool-NG linaro-1.13.1-4.8-2014.01 - Linaro GCC 2013.11) 20140106 (prerelease)
Input #0, image2, from '/home/martin/fate/build/tests/vsynth1/%02d.pgm':
  Duration: 00:00:02.00, start: 0.000000, bitrate: N/A
    Stream #0:0: Video: pgmyuv
      yuv420p, 352x288
      25 fps, 25 tbn
Stream mapping:
  Stream #0:0 -> #0:0 (pgmyuv (native) -> rawvideo (native))
Press ctrl-c to stop encoding
Output #0, nut, to 'md5:':
    Stream #0:0: Video: rawvideo [RGB[8] / 0x8424752]
      rgb8, 100x100, q=2-31, 200 kb/s
      25 tbn
    Metadata:
      encoder         : rawvideo
frame=    1 fps=  0 q=-0.0 Lsize=      10kB time=10000000000.00 bitrate=   0.0kbits/s    
video:10kB audio:0kB other streams:0kB global headers:0kB muxing overhead: 1.720000%
avconv version v13_dev0-1128-g3daaa44, Copyright (c) 2000-2017 the Libav developers
  built on May 17 2017 08:47:31 with gcc 4.8.3 (crosstool-NG linaro-1.13.1-4.8-2014.01 - Linaro GCC 2013.11) 20140106 (prerelease)
Input #0, image2, from '/home/martin/fate/build/tests/vsynth1/%02d.pgm':
  Duration: 00:00:02.00, start: 0.000000, bitrate: N/A
    Stream #0:0: Video: pgmyuv
      yuv420p, 352x288
      25 fps, 25 tbn
Stream mapping:
  Stream #0:0 -> #0:0 (pgmyuv (native) -> rawvideo (native))
Press ctrl-c to stop encoding
Output #0, nut, to 'md5:':
    Stream #0:0: Video: rawvideo [RGBA / 0x41424752]
      rgba, 100x100, q=2-31, 200 kb/s
      25 tbn
    Metadata:
      encoder         : rawvideo
frame=    1 fps=  0 q=-0.0 Lsize=      39kB time=10000000000.00 bitrate=   0.0kbits/s    
video:39kB audio:0kB other streams:0kB global headers:0kB muxing overhead: 0.432500%
avconv version v13_dev0-1128-g3daaa44, Copyright (c) 2000-2017 the Libav developers
  built on May 17 2017 08:47:31 with gcc 4.8.3 (crosstool-NG linaro-1.13.1-4.8-2014.01 - Linaro GCC 2013.11) 20140106 (prerelease)
Input #0, image2, from '/home/martin/fate/build/tests/vsynth1/%02d.pgm':
  Duration: 00:00:02.00, start: 0.000000, bitrate: N/A
    Stream #0:0: Video: pgmyuv
      yuv420p, 352x288
      25 fps, 25 tbn
Stream mapping:
  Stream #0:0 -> #0:0 (pgmyuv (native) -> rawvideo (native))
Press ctrl-c to stop encoding
Output #0, nut, to 'md5:':
    Stream #0:0: Video: rawvideo [YUV9 / 0x39565559]
      yuv410p, 100x100, q=2-31, 200 kb/s
      25 tbn
    Metadata:
      encoder         : rawvideo
frame=    1 fps=  0 q=-0.0 Lsize=      11kB time=10000000000.00 bitrate=   0.0kbits/s    
video:11kB audio:0kB other streams:0kB global headers:0kB muxing overhead: 1.528889%
avconv version v13_dev0-1128-g3daaa44, Copyright (c) 2000-2017 the Libav developers
  built on May 17 2017 08:47:31 with gcc 4.8.3 (crosstool-NG linaro-1.13.1-4.8-2014.01 - Linaro GCC 2013.11) 20140106 (prerelease)
Input #0, image2, from '/home/martin/fate/build/tests/vsynth1/%02d.pgm':
  Duration: 00:00:02.00, start: 0.000000, bitrate: N/A
    Stream #0:0: Video: pgmyuv
      yuv420p, 352x288
      25 fps, 25 tbn
Stream mapping:
  Stream #0:0 -> #0:0 (pgmyuv (native) -> rawvideo (native))
Press ctrl-c to stop encoding
Output #0, nut, to 'md5:':
    Stream #0:0: Video: rawvideo [Y41B / 0x42313459]
      yuv411p, 100x100, q=2-31, 200 kb/s
      25 tbn
    Metadata:
      encoder         : rawvideo
frame=    1 fps=  0 q=-0.0 Lsize=      15kB time=10000000000.00 bitrate=   0.0kbits/s    
video:15kB audio:0kB other streams:0kB global headers:0kB muxing overhead: 1.146667%
avconv version v13_dev0-1128-g3daaa44, Copyright (c) 2000-2017 the Libav developers
  built on May 17 2017 08:47:31 with gcc 4.8.3 (crosstool-NG linaro-1.13.1-4.8-2014.01 - Linaro GCC 2013.11) 20140106 (prerelease)
Input #0, image2, from '/home/martin/fate/build/tests/vsynth1/%02d.pgm':
  Duration: 00:00:02.00, start: 0.000000, bitrate: N/A
    Stream #0:0: Video: pgmyuv
      yuv420p, 352x288
      25 fps, 25 tbn
Stream mapping:
  Stream #0:0 -> #0:0 (pgmyuv (native) -> rawvideo (native))
Press ctrl-c to stop encoding
Output #0, nut, to 'md5:':
    Stream #0:0: Video: rawvideo [I420 / 0x30323449]
      yuv420p, 100x100, q=2-31, 200 kb/s
      25 tbn
    Metadata:
      encoder         : rawvideo
frame=    1 fps=  0 q=-0.0 Lsize=      15kB time=10000000000.00 bitrate=   0.0kbits/s    
video:15kB audio:0kB other streams:0kB global headers:0kB muxing overhead: 1.146667%
avconv version v13_dev0-1128-g3daaa44, Copyright (c) 2000-2017 the Libav developers
  built on May 17 2017 08:47:31 with gcc 4.8.3 (crosstool-NG linaro-1.13.1-4.8-2014.01 - Linaro GCC 2013.11) 20140106 (prerelease)
Input #0, image2, from '/home/martin/fate/build/tests/vsynth1/%02d.pgm':
  Duration: 00:00:02.00, start: 0.000000, bitrate: N/A
    Stream #0:0: Video: pgmyuv
      yuv420p, 352x288
      25 fps, 25 tbn
Stream mapping:
  Stream #0:0 -> #0:0 (pgmyuv (native) -> rawvideo (native))
Press ctrl-c to stop encoding
Output #0, nut, to 'md5:':
    Stream #0:0: Video: rawvideo [[16][11]3Y / 0x59330B10]
      yuv420p16be, 100x100, q=2-31, 200 kb/s
      25 tbn
    Metadata:
      encoder         : rawvideo
frame=    1 fps=  0 q=-0.0 Lsize=      29kB time=10000000000.00 bitrate=   0.0kbits/s    
video:29kB audio:0kB other streams:0kB global headers:0kB muxing overhead: 0.576667%
avconv version v13_dev0-1128-g3daaa44, Copyright (c) 2000-2017 the Libav developers
  built on May 17 2017 08:47:31 with gcc 4.8.3 (crosstool-NG linaro-1.13.1-4.8-2014.01 - Linaro GCC 2013.11) 20140106 (prerelease)
Input #0, image2, from '/home/martin/fate/build/tests/vsynth1/%02d.pgm':
  Duration: 00:00:02.00, start: 0.000000, bitrate: N/A
    Stream #0:0: Video: pgmyuv
      yuv420p, 352x288
      25 fps, 25 tbn
Stream mapping:
  Stream #0:0 -> #0:0 (pgmyuv (native) -> rawvideo (native))
Press ctrl-c to stop encoding
Output #0, nut, to 'md5:':
    Stream #0:0: Video: rawvideo [Y3[11][16] / 0x100B3359]
      yuv420p16le, 100x100, q=2-31, 200 kb/s
      25 tbn
    Metadata:
      encoder         : rawvideo
frame=    1 fps=  0 q=-0.0 Lsize=      29kB time=10000000000.00 bitrate=   0.0kbits/s    
video:29kB audio:0kB other streams:0kB global headers:0kB muxing overhead: 0.576667%
avconv version v13_dev0-1128-g3daaa44, Copyright (c) 2000-2017 the Libav developers
  built on May 17 2017 08:47:31 with gcc 4.8.3 (crosstool-NG linaro-1.13.1-4.8-2014.01 - Linaro GCC 2013.11) 20140106 (prerelease)
Input #0, image2, from '/home/martin/fate/build/tests/vsynth1/%02d.pgm':
  Duration: 00:00:02.00, start: 0.000000, bitrate: N/A
    Stream #0:0: Video: pgmyuv
      yuv420p, 352x288
      25 fps, 25 tbn
Stream mapping:
  Stream #0:0 -> #0:0 (pgmyuv (native) -> rawvideo (native))
Press ctrl-c to stop encoding
Output #0, nut, to 'md5:':
    Stream #0:0: Video: rawvideo [Y42B / 0x42323459]
      yuv422p, 100x100, q=2-31, 200 kb/s
      25 tbn
    Metadata:
      encoder         : rawvideo
frame=    1 fps=  0 q=-0.0 Lsize=      20kB time=10000000000.00 bitrate=   0.0kbits/s    
video:20kB audio:0kB other streams:0kB global headers:0kB muxing overhead: 0.865000%
avconv version v13_dev0-1128-g3daaa44, Copyright (c) 2000-2017 the Libav developers
  built on May 17 2017 08:47:31 with gcc 4.8.3 (crosstool-NG linaro-1.13.1-4.8-2014.01 - Linaro GCC 2013.11) 20140106 (prerelease)
Input #0, image2, from '/home/martin/fate/build/tests/vsynth1/%02d.pgm':
  Duration: 00:00:02.00, start: 0.000000, bitrate: N/A
    Stream #0:0: Video: pgmyuv
      yuv420p, 352x288
      25 fps, 25 tbn
Stream mapping:
  Stream #0:0 -> #0:0 (pgmyuv (native) -> rawvideo (native))
Press ctrl-c to stop encoding
Output #0, nut, to 'md5:':
    Stream #0:0: Video: rawvideo [[16][10]3Y / 0x59330A10]
      yuv422p16be, 100x100, q=2-31, 200 kb/s
      25 tbn
    Metadata:
      encoder         : rawvideo
frame=    1 fps=  0 q=-0.0 Lsize=      39kB time=10000000000.00 bitrate=   0.0kbits/s    
video:39kB audio:0kB other streams:0kB global headers:0kB muxing overhead: 0.432500%
avconv version v13_dev0-1128-g3daaa44, Copyright (c) 2000-2017 the Libav developers
  built on May 17 2017 08:47:31 with gcc 4.8.3 (crosstool-NG linaro-1.13.1-4.8-2014.01 - Linaro GCC 2013.11) 20140106 (prerelease)
Input #0, image2, from '/home/martin/fate/build/tests/vsynth1/%02d.pgm':
  Duration: 00:00:02.00, start: 0.000000, bitrate: N/A
    Stream #0:0: Video: pgmyuv
      yuv420p, 352x288
      25 fps, 25 tbn
Stream mapping:
  Stream #0:0 -> #0:0 (pgmyuv (native) -> rawvideo (native))
Press ctrl-c to stop encoding
Output #0, nut, to 'md5:':
    Stream #0:0: Video: rawvideo [Y3[10][16] / 0x100A3359]
      yuv422p16le, 100x100, q=2-31, 200 kb/s
      25 tbn
    Metadata:
      encoder         : rawvideo
frame=    1 fps=  0 q=-0.0 Lsize=      39kB time=10000000000.00 bitrate=   0.0kbits/s    
video:39kB audio:0kB other streams:0kB global headers:0kB muxing overhead: 0.432500%
avconv version v13_dev0-1128-g3daaa44, Copyright (c) 2000-2017 the Libav developers
  built on May 17 2017 08:47:31 with gcc 4.8.3 (crosstool-NG linaro-1.13.1-4.8-2014.01 - Linaro GCC 2013.11) 20140106 (prerelease)
Input #0, image2, from '/home/martin/fate/build/tests/vsynth1/%02d.pgm':
  Duration: 00:00:02.00, start: 0.000000, bitrate: N/A
    Stream #0:0: Video: pgmyuv
      yuv420p, 352x288
      25 fps, 25 tbn
Stream mapping:
  Stream #0:0 -> #0:0 (pgmyuv (native) -> rawvideo (native))
Press ctrl-c to stop encoding
Output #0, nut, to 'md5:':
    Stream #0:0: Video: rawvideo [440P / 0x50303434]
      yuv440p, 100x100, q=2-31, 200 kb/s
      25 tbn
    Metadata:
      encoder         : rawvideo
frame=    1 fps=  0 q=-0.0 Lsize=      20kB time=10000000000.00 bitrate=   0.0kbits/s    
video:20kB audio:0kB other streams:0kB global headers:0kB muxing overhead: 0.865000%
avconv version v13_dev0-1128-g3daaa44, Copyright (c) 2000-2017 the Libav developers
  built on May 17 2017 08:47:31 with gcc 4.8.3 (crosstool-NG linaro-1.13.1-4.8-2014.01 - Linaro GCC 2013.11) 20140106 (prerelease)
Input #0, image2, from '/home/martin/fate/build/tests/vsynth1/%02d.pgm':
  Duration: 00:00:02.00, start: 0.000000, bitrate: N/A
    Stream #0:0: Video: pgmyuv
      yuv420p, 352x288
      25 fps, 25 tbn
Stream mapping:
  Stream #0:0 -> #0:0 (pgmyuv (native) -> rawvideo (native))
Press ctrl-c to stop encoding
Output #0, nut, to 'md5:':
    Stream #0:0: Video: rawvideo [444P / 0x50343434]
      yuv444p, 100x100, q=2-31, 200 kb/s
      25 tbn
    Metadata:
      encoder         : rawvideo
frame=    1 fps=  0 q=-0.0 Lsize=      29kB time=10000000000.00 bitrate=   0.0kbits/s    
video:29kB audio:0kB other streams:0kB global headers:0kB muxing overhead: 0.576667%
avconv version v13_dev0-1128-g3daaa44, Copyright (c) 2000-2017 the Libav developers
  built on May 17 2017 08:47:31 with gcc 4.8.3 (crosstool-NG linaro-1.13.1-4.8-2014.01 - Linaro GCC 2013.11) 20140106 (prerelease)
Input #0, image2, from '/home/martin/fate/build/tests/vsynth1/%02d.pgm':
  Duration: 00:00:02.00, start: 0.000000, bitrate: N/A
    Stream #0:0: Video: pgmyuv
      yuv420p, 352x288
      25 fps, 25 tbn
Stream mapping:
  Stream #0:0 -> #0:0 (pgmyuv (native) -> rawvideo (native))
Press ctrl-c to stop encoding
Output #0, nut, to 'md5:':
    Stream #0:0: Video: rawvideo [[16][0]3Y / 0x59330010]
      yuv444p16be, 100x100, q=2-31, 200 kb/s
      25 tbn
    Metadata:
      encoder         : rawvideo
frame=    1 fps=  0 q=-0.0 Lsize=      59kB time=10000000000.00 bitrate=   0.0kbits/s    
video:59kB audio:0kB other streams:0kB global headers:0kB muxing overhead: 0.288333%
avconv version v13_dev0-1128-g3daaa44, Copyright (c) 2000-2017 the Libav developers
  built on May 17 2017 08:47:31 with gcc 4.8.3 (crosstool-NG linaro-1.13.1-4.8-2014.01 - Linaro GCC 2013.11) 20140106 (prerelease)
Input #0, image2, from '/home/martin/fate/build/tests/vsynth1/%02d.pgm':
  Duration: 00:00:02.00, start: 0.000000, bitrate: N/A
    Stream #0:0: Video: pgmyuv
      yuv420p, 352x288
      25 fps, 25 tbn
Stream mapping:
  Stream #0:0 -> #0:0 (pgmyuv (native) -> rawvideo (native))
Press ctrl-c to stop encoding
Output #0, nut, to 'md5:':
    Stream #0:0: Video: rawvideo [Y3[0][16] / 0x10003359]
      yuv444p16le, 100x100, q=2-31, 200 kb/s
      25 tbn
    Metadata:
      encoder         : rawvideo
frame=    1 fps=  0 q=-0.0 Lsize=      59kB time=10000000000.00 bitrate=   0.0kbits/s    
video:59kB audio:0kB other streams:0kB global headers:0kB muxing overhead: 0.288333%
avconv version v13_dev0-1128-g3daaa44, Copyright (c) 2000-2017 the Libav developers
  built on May 17 2017 08:47:31 with gcc 4.8.3 (crosstool-NG linaro-1.13.1-4.8-2014.01 - Linaro GCC 2013.11) 20140106 (prerelease)
Input #0, image2, from '/home/martin/fate/build/tests/vsynth1/%02d.pgm':
  Duration: 00:00:02.00, start: 0.000000, bitrate: N/A
    Stream #0:0: Video: pgmyuv
      yuv420p, 352x288
      25 fps, 25 tbn
Stream mapping:
  Stream #0:0 -> #0:0 (pgmyuv (native) -> rawvideo (native))
Press ctrl-c to stop encoding
Output #0, nut, to 'md5:':
    Stream #0:0: Video: rawvideo [Y4[11][8] / 0x80B3459]
      yuva420p, 100x100, q=2-31, 200 kb/s
      25 tbn
    Metadata:
      encoder         : rawvideo
frame=    1 fps=  0 q=-0.0 Lsize=      25kB time=10000000000.00 bitrate=   0.0kbits/s    
video:24kB audio:0kB other streams:0kB global headers:0kB muxing overhead: 0.692000%
avconv version v13_dev0-1128-g3daaa44, Copyright (c) 2000-2017 the Libav developers
  built on May 17 2017 08:47:31 with gcc 4.8.3 (crosstool-NG linaro-1.13.1-4.8-2014.01 - Linaro GCC 2013.11) 20140106 (prerelease)
Input #0, image2, from '/home/martin/fate/build/tests/vsynth1/%02d.pgm':
  Duration: 00:00:02.00, start: 0.000000, bitrate: N/A
    Stream #0:0: Video: pgmyuv
      yuv420p, 352x288
      25 fps, 25 tbn
Stream mapping:
  Stream #0:0 -> #0:0 (pgmyuv (native) -> rawvideo (native))
Press ctrl-c to stop encoding
Output #0, nut, to 'md5:':
    Stream #0:0: Video: rawvideo [I420 / 0x30323449]
      yuvj420p, 100x100, q=2-31, 200 kb/s
      25 tbn
    Metadata:
      encoder         : rawvideo
frame=    1 fps=  0 q=-0.0 Lsize=      15kB time=10000000000.00 bitrate=   0.0kbits/s    
video:15kB audio:0kB other streams:0kB global headers:0kB muxing overhead: 1.146667%
avconv version v13_dev0-1128-g3daaa44, Copyright (c) 2000-2017 the Libav developers
  built on May 17 2017 08:47:31 with gcc 4.8.3 (crosstool-NG linaro-1.13.1-4.8-2014.01 - Linaro GCC 2013.11) 20140106 (prerelease)
Input #0, image2, from '/home/martin/fate/build/tests/vsynth1/%02d.pgm':
  Duration: 00:00:02.00, start: 0.000000, bitrate: N/A
    Stream #0:0: Video: pgmyuv
      yuv420p, 352x288
      25 fps, 25 tbn
Stream mapping:
  Stream #0:0 -> #0:0 (pgmyuv (native) -> rawvideo (native))
Press ctrl-c to stop encoding
Output #0, nut, to 'md5:':
    Stream #0:0: Video: rawvideo [Y42B / 0x42323459]
      yuvj422p, 100x100, q=2-31, 200 kb/s
      25 tbn
    Metadata:
      encoder         : rawvideo
frame=    1 fps=  0 q=-0.0 Lsize=      20kB time=10000000000.00 bitrate=   0.0kbits/s    
video:20kB audio:0kB other streams:0kB global headers:0kB muxing overhead: 0.865000%
avconv version v13_dev0-1128-g3daaa44, Copyright (c) 2000-2017 the Libav developers
  built on May 17 2017 08:47:31 with gcc 4.8.3 (crosstool-NG linaro-1.13.1-4.8-2014.01 - Linaro GCC 2013.11) 20140106 (prerelease)
Input #0, image2, from '/home/martin/fate/build/tests/vsynth1/%02d.pgm':
  Duration: 00:00:02.00, start: 0.000000, bitrate: N/A
    Stream #0:0: Video: pgmyuv
      yuv420p, 352x288
      25 fps, 25 tbn
Stream mapping:
  Stream #0:0 -> #0:0 (pgmyuv (native) -> rawvideo (native))
Press ctrl-c to stop encoding
Output #0, nut, to 'md5:':
    Stream #0:0: Video: rawvideo [440P / 0x50303434]
      yuvj440p, 100x100, q=2-31, 200 kb/s
      25 tbn
    Metadata:
      encoder         : rawvideo
frame=    1 fps=  0 q=-0.0 Lsize=      20kB time=10000000000.00 bitrate=   0.0kbits/s    
video:20kB audio:0kB other streams:0kB global headers:0kB muxing overhead: 0.865000%
avconv version v13_dev0-1128-g3daaa44, Copyright (c) 2000-2017 the Libav developers
  built on May 17 2017 08:47:31 with gcc 4.8.3 (crosstool-NG linaro-1.13.1-4.8-2014.01 - Linaro GCC 2013.11) 20140106 (prerelease)
Input #0, image2, from '/home/martin/fate/build/tests/vsynth1/%02d.pgm':
  Duration: 00:00:02.00, start: 0.000000, bitrate: N/A
    Stream #0:0: Video: pgmyuv
      yuv420p, 352x288
      25 fps, 25 tbn
Stream mapping:
  Stream #0:0 -> #0:0 (pgmyuv (native) -> rawvideo (native))
Press ctrl-c to stop encoding
Output #0, nut, to 'md5:':
    Stream #0:0: Video: rawvideo [444P / 0x50343434]
      yuvj444p, 100x100, q=2-31, 200 kb/s
      25 tbn
    Metadata:
      encoder         : rawvideo
frame=    1 fps=  0 q=-0.0 Lsize=      29kB time=10000000000.00 bitrate=   0.0kbits/s    
video:29kB audio:0kB other streams:0kB global headers:0kB muxing overhead: 0.576667%
diffstderrgolomb255v13_dev0-1405-g3152058bf
No diff output recorded
No output on stderr