arm64-msvc-15 v13_dev0-1531-g347aa8f

Architectureaarch64
Variant
CPUgeneric
OSwin32
Ownermartin
CompilerMicrosoft (R) C/C++ Optimizing Compiler Version 19.13.26128 for ARM64
Configuration--enable-gpl --prefix=/home/martin/fate/install --samples=/home/martin/fate/samples --arch=arm64 --target-os=win32 --target-exec='ssh dragon /home/martin/bin/runcmd /home/martin/bin/wine64' --extra-cflags=-MD --toolchain=msvc --enable-cross-compile --disable-debug
Commentgas-preprocessor
Revisionv13_dev0-1531-g347aa8f
Date2018-04-16 11:30:07
Status2098 / 2107
Warnings1059
Logscompile configure test
9 failed testsStatusLast good rev
diffstderrmagicyuv-rgb1v13_dev0-1580-ga2041a6
--- /home/martin/fate/src/tests/ref/fate/magicyuv-rgb	2016-06-21 06:59:38.355231332 +0300
+++ tests/data/fate/magicyuv-rgb	2018-04-16 14:28:48.983132657 +0300
@@ -1,2 +0,0 @@
-#tb 0: 100/2397
-0,          0,          0,        1,   144768, 0x497c8ce1
preloader: Warning: failed to reserve range 0000000000110000-0000000068000000
0155:fixme:msvcrt:_control87 not implemented
0155:fixme:msvcrt:_control87 not implemented
0155:fixme:msvcrt:_control87 not implemented
0155:fixme:msvcrt:_control87 not implemented
0155:fixme:msvcrt:_control87 not implemented
0155:fixme:msvcrt:_control87 not implemented
0155:fixme:msvcrt:_control87 not implemented
0155:fixme:msvcrt:_control87 not implemented
0155:fixme:msvcrt:_control87 not implemented
avconv version v13_dev0-1531-g347aa8f, Copyright (c) 2000-2018 the Libav developers
  built on Apr 16 2018 14:07:37 with Microsoft (R) C/C++ Optimizing Compiler Version 19.13.26128 for ARM64
Input #0, avi, from '/home/martin/fate/samples/magy/magy_rgb_median.avi':
  Metadata:
    encoder         : Lavf57.7.1
  Duration: 00:00:00.04, start: 0.000000, bitrate: 11952 kb/s
    Stream #0:0: Video: magicyuv [MAGY / 0x5947414D]
      gbrp, 208x232
      23.97 tbn
Stream mapping:
  Stream #0:0 -> #0:0 (magicyuv (native) -> rawvideo (native))
Press ctrl-c to stop encoding
Error while decoding stream #0:0
Video encoding failed
diffstderrmagicyuv-rgba1v13_dev0-1580-ga2041a6
--- /home/martin/fate/src/tests/ref/fate/magicyuv-rgba	2016-06-21 06:59:38.355231332 +0300
+++ tests/data/fate/magicyuv-rgba	2018-04-16 14:28:48.667139531 +0300
@@ -1,2 +0,0 @@
-#tb 0: 100/2397
-0,          0,          0,        1,   193024, 0x7e1b7233
preloader: Warning: failed to reserve range 0000000000110000-0000000068000000
0026:fixme:msvcrt:_control87 not implemented
0026:fixme:msvcrt:_control87 not implemented
0026:fixme:msvcrt:_control87 not implemented
0026:fixme:msvcrt:_control87 not implemented
0026:fixme:msvcrt:_control87 not implemented
0026:fixme:msvcrt:_control87 not implemented
0026:fixme:msvcrt:_control87 not implemented
0026:fixme:msvcrt:_control87 not implemented
0026:fixme:msvcrt:_control87 not implemented
avconv version v13_dev0-1531-g347aa8f, Copyright (c) 2000-2018 the Libav developers
  built on Apr 16 2018 14:07:37 with Microsoft (R) C/C++ Optimizing Compiler Version 19.13.26128 for ARM64
Input #0, avi, from '/home/martin/fate/samples/magy/magy_rgba_gradient.avi':
  Metadata:
    encoder         : Lavf57.7.1
  Duration: 00:00:00.04, start: 0.000000, bitrate: 17228 kb/s
    Stream #0:0: Video: magicyuv [MAGY / 0x5947414D]
      gbrap, 208x232
      23.97 tbn
Stream mapping:
  Stream #0:0 -> #0:0 (magicyuv (native) -> rawvideo (native))
Press ctrl-c to stop encoding
Error while decoding stream #0:0
Video encoding failed
diffstderrmagicyuv-y400i1v13_dev0-1580-ga2041a6
--- /home/martin/fate/src/tests/ref/fate/magicyuv-y400i	2016-06-21 06:59:38.355231332 +0300
+++ tests/data/fate/magicyuv-y400i	2018-04-16 14:28:47.435166330 +0300
@@ -1,2 +0,0 @@
-#tb 0: 100/2397
-0,          0,          0,        1,    48256, 0x368b93f2
preloader: Warning: failed to reserve range 0000000000110000-0000000068000000
00d6:fixme:msvcrt:_control87 not implemented
00d6:fixme:msvcrt:_control87 not implemented
00d6:fixme:msvcrt:_control87 not implemented
00d6:fixme:msvcrt:_control87 not implemented
00d6:fixme:msvcrt:_control87 not implemented
00d6:fixme:msvcrt:_control87 not implemented
00d6:fixme:msvcrt:_control87 not implemented
00d6:fixme:msvcrt:_control87 not implemented
00d6:fixme:msvcrt:_control87 not implemented
avconv version v13_dev0-1531-g347aa8f, Copyright (c) 2000-2018 the Libav developers
  built on Apr 16 2018 14:07:37 with Microsoft (R) C/C++ Optimizing Compiler Version 19.13.26128 for ARM64
Input #0, avi, from '/home/martin/fate/samples/magy/magy_yuv400_gradient_interlaced.avi':
  Metadata:
    encoder         : Lavf57.7.1
  Duration: 00:00:00.04, start: 0.000000, bitrate: 7060 kb/s
    Stream #0:0: Video: magicyuv [MAGY / 0x5947414D]
      gray, 208x232
      23.97 tbn
Stream mapping:
  Stream #0:0 -> #0:0 (magicyuv (native) -> rawvideo (native))
Press ctrl-c to stop encoding
Error while decoding stream #0:0
Video encoding failed
diffstderrmagicyuv-y4201v13_dev0-1580-ga2041a6
--- /home/martin/fate/src/tests/ref/fate/magicyuv-y420	2016-06-21 06:59:38.355231332 +0300
+++ tests/data/fate/magicyuv-y420	2018-04-16 14:28:47.759159283 +0300
@@ -1,2 +0,0 @@
-#tb 0: 100/2397
-0,          0,          0,        1,    72384, 0x59a87842
preloader: Warning: failed to reserve range 0000000000110000-0000000068000000
01b9:fixme:msvcrt:_control87 not implemented
01b9:fixme:msvcrt:_control87 not implemented
01b9:fixme:msvcrt:_control87 not implemented
01b9:fixme:msvcrt:_control87 not implemented
01b9:fixme:msvcrt:_control87 not implemented
01b9:fixme:msvcrt:_control87 not implemented
01b9:fixme:msvcrt:_control87 not implemented
01b9:fixme:msvcrt:_control87 not implemented
01b9:fixme:msvcrt:_control87 not implemented
avconv version v13_dev0-1531-g347aa8f, Copyright (c) 2000-2018 the Libav developers
  built on Apr 16 2018 14:07:37 with Microsoft (R) C/C++ Optimizing Compiler Version 19.13.26128 for ARM64
Input #0, avi, from '/home/martin/fate/samples/magy/magy_yuv420_median.avi':
  Metadata:
    encoder         : Lavf57.7.1
  Duration: 00:00:00.04, start: 0.000000, bitrate: 7490 kb/s
    Stream #0:0: Video: magicyuv [MAGY / 0x5947414D]
      yuv420p, 208x232
      23.97 tbn
Stream mapping:
  Stream #0:0 -> #0:0 (magicyuv (native) -> rawvideo (native))
Press ctrl-c to stop encoding
Error while decoding stream #0:0
Video encoding failed
diffstderrmagicyuv-y422i1v13_dev0-1580-ga2041a6
--- /home/martin/fate/src/tests/ref/fate/magicyuv-y422i	2016-06-21 06:59:38.355231332 +0300
+++ tests/data/fate/magicyuv-y422i	2018-04-16 14:28:48.027153453 +0300
@@ -1,2 +0,0 @@
-#tb 0: 100/2397
-0,          0,          0,        1,    96512, 0xe84751be
preloader: Warning: failed to reserve range 0000000000110000-0000000068000000
019d:fixme:msvcrt:_control87 not implemented
019d:fixme:msvcrt:_control87 not implemented
019d:fixme:msvcrt:_control87 not implemented
019d:fixme:msvcrt:_control87 not implemented
019d:fixme:msvcrt:_control87 not implemented
019d:fixme:msvcrt:_control87 not implemented
019d:fixme:msvcrt:_control87 not implemented
019d:fixme:msvcrt:_control87 not implemented
019d:fixme:msvcrt:_control87 not implemented
avconv version v13_dev0-1531-g347aa8f, Copyright (c) 2000-2018 the Libav developers
  built on Apr 16 2018 14:07:37 with Microsoft (R) C/C++ Optimizing Compiler Version 19.13.26128 for ARM64
Input #0, avi, from '/home/martin/fate/samples/magy/magy_yuv422_median_interlaced.avi':
  Metadata:
    encoder         : Lavf57.7.1
  Duration: 00:00:00.04, start: 0.000000, bitrate: 9255 kb/s
    Stream #0:0: Video: magicyuv [MAGY / 0x5947414D]
      yuv422p, 208x232
      23.97 tbn
Stream mapping:
  Stream #0:0 -> #0:0 (magicyuv (native) -> rawvideo (native))
Press ctrl-c to stop encoding
Error while decoding stream #0:0
Video encoding failed
diffstderrmagicyuv-y4441v13_dev0-1580-ga2041a6
--- /home/martin/fate/src/tests/ref/fate/magicyuv-y444	2016-06-21 06:59:38.355231332 +0300
+++ tests/data/fate/magicyuv-y444	2018-04-16 14:28:48.367146056 +0300
@@ -1,2 +0,0 @@
-#tb 0: 100/2397
-0,          0,          0,        1,   144768, 0xef48043f
preloader: Warning: failed to reserve range 0000000000110000-0000000068000000
01e8:fixme:msvcrt:_control87 not implemented
01e8:fixme:msvcrt:_control87 not implemented
01e8:fixme:msvcrt:_control87 not implemented
01e8:fixme:msvcrt:_control87 not implemented
01e8:fixme:msvcrt:_control87 not implemented
01e8:fixme:msvcrt:_control87 not implemented
01e8:fixme:msvcrt:_control87 not implemented
01e8:fixme:msvcrt:_control87 not implemented
01e8:fixme:msvcrt:_control87 not implemented
avconv version v13_dev0-1531-g347aa8f, Copyright (c) 2000-2018 the Libav developers
  built on Apr 16 2018 14:07:37 with Microsoft (R) C/C++ Optimizing Compiler Version 19.13.26128 for ARM64
Input #0, avi, from '/home/martin/fate/samples/magy/magy_yuv444_left.avi':
  Metadata:
    encoder         : Lavf57.7.1
  Duration: 00:00:00.04, start: 0.000000, bitrate: 11749 kb/s
    Stream #0:0: Video: magicyuv [MAGY / 0x5947414D]
      yuv444p, 208x232
      23.97 tbn
Stream mapping:
  Stream #0:0 -> #0:0 (magicyuv (native) -> rawvideo (native))
Press ctrl-c to stop encoding
Error while decoding stream #0:0
Video encoding failed
diffstderrmagicyuv-y4444i1v13_dev0-1580-ga2041a6
--- /home/martin/fate/src/tests/ref/fate/magicyuv-y4444i	2016-06-21 06:59:38.355231332 +0300
+++ tests/data/fate/magicyuv-y4444i	2018-04-16 14:28:47.115173290 +0300
@@ -1,2 +0,0 @@
-#tb 0: 100/2397
-0,          0,          0,        1,   193024, 0x5292ecec
preloader: Warning: failed to reserve range 0000000000110000-0000000068000000
018f:fixme:msvcrt:_control87 not implemented
018f:fixme:msvcrt:_control87 not implemented
018f:fixme:msvcrt:_control87 not implemented
018f:fixme:msvcrt:_control87 not implemented
018f:fixme:msvcrt:_control87 not implemented
018f:fixme:msvcrt:_control87 not implemented
018f:fixme:msvcrt:_control87 not implemented
018f:fixme:msvcrt:_control87 not implemented
018f:fixme:msvcrt:_control87 not implemented
avconv version v13_dev0-1531-g347aa8f, Copyright (c) 2000-2018 the Libav developers
  built on Apr 16 2018 14:07:37 with Microsoft (R) C/C++ Optimizing Compiler Version 19.13.26128 for ARM64
Input #0, avi, from '/home/martin/fate/samples/magy/magy_yuv4444_left_interlaced.avi':
  Metadata:
    encoder         : Lavf57.7.1
  Duration: 00:00:00.04, start: 0.000000, bitrate: 17216 kb/s
    Stream #0:0: Video: magicyuv [MAGY / 0x5947414D]
      yuva444p, 208x232
      23.97 tbn
Stream mapping:
  Stream #0:0 -> #0:0 (magicyuv (native) -> rawvideo (native))
Press ctrl-c to stop encoding
Error while decoding stream #0:0
Video encoding failed
diffstderrwebp-yuv420p1v13_dev0-1580-ga2041a6
--- /home/martin/fate/src/tests/ref/fate/webp-yuv420p	2017-02-22 07:26:40.532960741 +0200
+++ tests/data/fate/webp-yuv420p	2018-04-16 14:24:37.040612782 +0300
@@ -1,2 +0,0 @@
-#tb 0: 1/25
-0,          0,          0,        1,   135200, 0xc2e0319d
preloader: Warning: failed to reserve range 0000000000110000-0000000068000000
0142:fixme:msvcrt:_control87 not implemented
0142:fixme:msvcrt:_control87 not implemented
0142:fixme:msvcrt:_control87 not implemented
0142:fixme:msvcrt:_control87 not implemented
0142:fixme:msvcrt:_control87 not implemented
0142:fixme:msvcrt:_control87 not implemented
0142:fixme:msvcrt:_control87 not implemented
0142:fixme:msvcrt:_control87 not implemented
0142:fixme:msvcrt:_control87 not implemented
avconv version v13_dev0-1531-g347aa8f, Copyright (c) 2000-2018 the Libav developers
  built on Apr 16 2018 14:07:37 with Microsoft (R) C/C++ Optimizing Compiler Version 19.13.26128 for ARM64
[image2 @ 0000007F92243F20] Could not find codec parameters (Video: webp
      none)
Input #0, image2, from '/home/martin/fate/samples/webp/image_small.webp':
  Duration: 00:00:00.04, start: 0.000000, bitrate: N/A
    Stream #0:0: Video: webp
      none
      25 tbn
Output #0, framecrc, to 'pipe:':
Output file #0 does not contain any stream
diffstderrwebp-yuva420p1v13_dev0-1580-ga2041a6
--- /home/martin/fate/src/tests/ref/fate/webp-yuva420p	2017-02-22 07:26:40.532960741 +0200
+++ tests/data/fate/webp-yuva420p	2018-04-16 14:24:37.332606431 +0300
@@ -1,2 +0,0 @@
-#tb 0: 1/25
-0,          0,          0,        1,   301200, 0x12b071a0
preloader: Warning: failed to reserve range 0000000000110000-0000000068000000
00e7:fixme:msvcrt:_control87 not implemented
00e7:fixme:msvcrt:_control87 not implemented
00e7:fixme:msvcrt:_control87 not implemented
00e7:fixme:msvcrt:_control87 not implemented
00e7:fixme:msvcrt:_control87 not implemented
00e7:fixme:msvcrt:_control87 not implemented
00e7:fixme:msvcrt:_control87 not implemented
00e7:fixme:msvcrt:_control87 not implemented
00e7:fixme:msvcrt:_control87 not implemented
avconv version v13_dev0-1531-g347aa8f, Copyright (c) 2000-2018 the Libav developers
  built on Apr 16 2018 14:07:37 with Microsoft (R) C/C++ Optimizing Compiler Version 19.13.26128 for ARM64
[image2 @ 0000007F90723F20] Could not find codec parameters (Video: webp
      none)
Input #0, image2, from '/home/martin/fate/samples/webp/1_webp_a.webp':
  Duration: 00:00:00.04, start: 0.000000, bitrate: N/A
    Stream #0:0: Video: webp
      none
      25 tbn
Output #0, framecrc, to 'pipe:':
Output file #0 does not contain any stream