arm-linux-gcc v13_dev0-1218-g95ce02b

Architecturearm
Variantarmv5t
CPUarmv5t
OSlinux
Ownerkostylev
Compilergcc 8.0.0 (GCC) 20170717 (experimental)
Configuration--prefix=/home/mik/src/fate/arm-linux-gcc/install --samples=/home/mik/src/fate/fate-suite --enable-gpl --arch=arm --cross-prefix=arm-linux-gnueabi- --cc='ccache arm-linux-gnueabi-gcc-8' --target-os=linux --sysroot=/home/mik/misc/arm-linux-gnueabi/arm-linux-gnueabi --extra-ldflags=-static --disable-debug
Comment
Revisionv13_dev0-1218-g95ce02b
Date2017-07-17 13:15:42
Status2108 / 2111
Warnings81
Logscompile configure test
3 failed testsStatusLast good rev
diffstderrfilter-delogo1v13_dev0-1300-gac6691ab9
--- /home/mik/src/fate/src/tests/ref/fate/filter-delogo	2016-12-02 12:33:32.174169000 -0800
+++ tests/data/fate/filter-delogo	2017-07-17 06:12:06.663592000 -0700
@@ -24,87 +24,3 @@
 0,        734,        734,        0,   126720, 0x59e9a7ea
 0,        767,        767,        0,   126720, 0xc77ca73d
 0,        800,        800,        0,   126720, 0x725fb976
-0,        834,        834,        0,   126720, 0xb30da3b3
-0,        867,        867,        0,   126720, 0x7af2ea86
-0,        900,        900,        0,   126720, 0x40d4b4eb
-0,        934,        934,        0,   126720, 0x49d00307
-0,        967,        967,        0,   126720, 0x0654849c
-0,       1000,       1000,        0,   126720, 0xe46d0107
-0,       1034,       1034,        0,   126720, 0xa483b963
-0,       1067,       1067,        0,   126720, 0xd0e903f0
-0,       1101,       1101,        0,   126720, 0x964ed592
-0,       1134,       1134,        0,   126720, 0x23fbdb3c
-0,       1167,       1167,        0,   126720, 0x59fdace5
-0,       1201,       1201,        0,   126720, 0xb1e37954
-0,       1234,       1234,        0,   126720, 0x8ed9c554
-0,       1267,       1267,        0,   126720, 0xe3c4b39f
-0,       1301,       1301,        0,   126720, 0xfd17e0ce
-0,       1334,       1334,        0,   126720, 0xf26e1dcc
-0,       1368,       1368,        0,   126720, 0x13cc783c
-0,       1401,       1401,        0,   126720, 0x47ad47a1
-0,       1434,       1434,        0,   126720, 0x427c8b0d
-0,       1468,       1468,        0,   126720, 0x59d99901
-0,       1501,       1501,        0,   126720, 0xc40707da
-0,       1534,       1534,        0,   126720, 0xcd060dce
-0,       1568,       1568,        0,   126720, 0xed4024f6
-0,       1601,       1601,        0,   126720, 0x7decd2b4
-0,       1634,       1634,        0,   126720, 0xd1d2e730
-0,       1668,       1668,        0,   126720, 0x77cee457
-0,       1701,       1701,        0,   126720, 0xe78d02c0
-0,       1735,       1735,        0,   126720, 0xad0beb29
-0,       1768,       1768,        0,   126720, 0xc414eea2
-0,       1801,       1801,        0,   126720, 0x6a15f17d
-0,       1835,       1835,        0,   126720, 0x516027f6
-0,       1868,       1868,        0,   126720, 0x4eda9dce
-0,       1901,       1901,        0,   126720, 0x7d9bdba3
-0,       1935,       1935,        0,   126720, 0x7aa3d5c0
-0,       1968,       1968,        0,   126720, 0x7c7a04f9
-0,       2001,       2001,        0,   126720, 0x3e8fb6cc
-0,       2035,       2035,        0,   126720, 0xd5474916
-0,       2068,       2068,        0,   126720, 0xf3f62bab
-0,       2102,       2102,        0,   126720, 0x2f054987
-0,       2135,       2135,        0,   126720, 0x974c2e81
-0,       2168,       2168,        0,   126720, 0xe7e28a97
-0,       2202,       2202,        0,   126720, 0x45e38b41
-0,       2235,       2235,        0,   126720, 0x169c7f19
-0,       2268,       2268,        0,   126720, 0x91d90ee8
-0,       2302,       2302,        0,   126720, 0xdd653e24
-0,       2335,       2335,        0,   126720, 0x0da598c4
-0,       2369,       2369,        0,   126720, 0x687e62cc
-0,       2402,       2402,        0,   126720, 0x7631232d
-0,       2435,       2435,        0,   126720, 0xbd1ea826
-0,       2469,       2469,        0,   126720, 0xb55f7f4b
-0,       2502,       2502,        0,   126720, 0x923f3fc9
-0,       2535,       2535,        0,   126720, 0x15515301
-0,       2569,       2569,        0,   126720, 0x9ee066e5
-0,       2602,       2602,        0,   126720, 0x7c21664b
-0,       2635,       2635,        0,   126720, 0x36849100
-0,       2669,       2669,        0,   126720, 0x08b1f61a
-0,       2702,       2702,        0,   126720, 0x5bfca6e2
-0,       2736,       2736,        0,   126720, 0x929f60e3
-0,       2769,       2769,        0,   126720, 0xa2b55c29
-0,       2802,       2802,        0,   126720, 0x68bd3ff3
-0,       2836,       2836,        0,   126720, 0x30db5b29
-0,       2869,       2869,        0,   126720, 0x00578f9b
-0,       2902,       2902,        0,   126720, 0x18368642
-0,       2936,       2936,        0,   126720, 0xbcb83a80
-0,       2969,       2969,        0,   126720, 0x90f36b72
-0,       3002,       3002,        0,   126720, 0x85e46522
-0,       3036,       3036,        0,   126720, 0x2429660a
-0,       3069,       3069,        0,   126720, 0xf283dfe2
-0,       3103,       3103,        0,   126720, 0x896b27dc
-0,       3136,       3136,        0,   126720, 0x5af4f961
-0,       3169,       3169,        0,   126720, 0x31897085
-0,       3203,       3203,        0,   126720, 0x441ce33e
-0,       3236,       3236,        0,   126720, 0x903f8009
-0,       3269,       3269,        0,   126720, 0xbdf33dba
-0,       3303,       3303,        0,   126720, 0x8a364f36
-0,       3336,       3336,        0,   126720, 0xda5513f6
-0,       3370,       3370,        0,   126720, 0xd60012b3
-0,       3403,       3403,        0,   126720, 0x67bce7be
-0,       3436,       3436,        0,   126720, 0x697e6174
-0,       3470,       3470,        0,   126720, 0xbe3e3e90
-0,       3503,       3503,        0,   126720, 0xf3e4bba6
-0,       3536,       3536,        0,   126720, 0x8124a679
-0,       3570,       3570,        0,   126720, 0x58d1acde
-0,       3603,       3603,        0,   126720, 0xd8a15ba3
avconv version v13_dev0-1218-g95ce02b, Copyright (c) 2000-2017 the Libav developers
  built on Jul 17 2017 06:11:03 with gcc 8.0.0 (GCC) 20170717 (experimental)
[rm @ 0x17cf8a0] Unsupported stream type 0000027c
[rm @ 0x17cf8a0] Could not find codec parameters (Data: [0][0][0][0] / 0x0000)
Input #0, rm, from '/home/mik/src/fate/fate-suite/real/rv30.rm':
  Metadata:
    title           : blowfish-toons.com @ cosmos
    author          : blowfish-toons.com @ cosmos
    copyright       : blowfish-toons.com @ cosmos
    comment         : 
  Duration: 00:22:30.47, start: 0.000000, bitrate: 1 kb/s
    Stream #0:0: Audio: cook [cook / 0x6B6F6F63]
      44100 Hz, mono, fltp, 64 kb/s
    Stream #0:1: Video: rv30 [RV30 / 0x30335652]
      yuv420p, 352x240, 385 kb/s
      29.97 fps, 1k tbn
    Stream #0:2: Data: [0][0][0][0] / 0x0000
Stream mapping:
  Stream #0:1 -> #0:0 (rv30 (native) -> rawvideo (native))
Press ctrl-c to stop encoding
Output #0, framecrc, to 'pipe:':
  Metadata:
    title           : blowfish-toons.com @ cosmos
    author          : blowfish-toons.com @ cosmos
    copyright       : blowfish-toons.com @ cosmos
    comment         : 
    encoder         : Lavf58.0.0
    Stream #0:0: Video: rawvideo [I420 / 0x30323449]
      yuv420p, 352x240, q=2-31, 200 kb/s
      1k tbn
    Metadata:
      encoder         : Lavc58.4.0 rawvideo
/home/mik/src/fate/fate-suite/real/rv30.rm: Input/output error
frame=   25 fps=  0 q=-0.0 Lsize=       1kB time=0.80 bitrate=  14.6kbits/s    
video:3094kB audio:0kB other streams:0kB global headers:0kB muxing overhead: unknown
diffstderrrv301v13_dev0-1300-gac6691ab9
--- /home/mik/src/fate/src/tests/ref/fate/rv30	2016-12-02 12:33:32.354169000 -0800
+++ tests/data/fate/rv30	2017-07-17 06:13:27.833592000 -0700
@@ -24,87 +24,3 @@
 0,        734,        734,        0,   126720, 0xa5caab87
 0,        767,        767,        0,   126720, 0x9ca7aac7
 0,        800,        800,        0,   126720, 0xb7debcd7
-0,        834,        834,        0,   126720, 0xd115a757
-0,        867,        867,        0,   126720, 0x6ddaef32
-0,        900,        900,        0,   126720, 0xde1bb900
-0,        934,        934,        0,   126720, 0xac6c071b
-0,        967,        967,        0,   126720, 0x4a9f897c
-0,       1000,       1000,        0,   126720, 0xd8fa050f
-0,       1034,       1034,        0,   126720, 0x5d06be59
-0,       1067,       1067,        0,   126720, 0xdc3e0837
-0,       1101,       1101,        0,   126720, 0xcac6da2b
-0,       1134,       1134,        0,   126720, 0x6672dfc9
-0,       1167,       1167,        0,   126720, 0x7491b176
-0,       1201,       1201,        0,   126720, 0xa9477df0
-0,       1234,       1234,        0,   126720, 0xe976c34f
-0,       1267,       1267,        0,   126720, 0xdb7ab0e2
-0,       1301,       1301,        0,   126720, 0x1b42db35
-0,       1334,       1334,        0,   126720, 0xc6e10f9f
-0,       1368,       1368,        0,   126720, 0x169d61b6
-0,       1401,       1401,        0,   126720, 0xc7623119
-0,       1434,       1434,        0,   126720, 0x5b9b7543
-0,       1468,       1468,        0,   126720, 0x68c27aca
-0,       1501,       1501,        0,   126720, 0xa0e4e1c9
-0,       1534,       1534,        0,   126720, 0xbbdae87e
-0,       1568,       1568,        0,   126720, 0xe67e00a1
-0,       1601,       1601,        0,   126720, 0x648ea605
-0,       1634,       1634,        0,   126720, 0x5becb718
-0,       1668,       1668,        0,   126720, 0xb79ab1da
-0,       1701,       1701,        0,   126720, 0x0d52d1dc
-0,       1735,       1735,        0,   126720, 0x1277b853
-0,       1768,       1768,        0,   126720, 0xc57cbc83
-0,       1801,       1801,        0,   126720, 0x2126bdc3
-0,       1835,       1835,        0,   126720, 0x4c1ef41f
-0,       1868,       1868,        0,   126720, 0x185f6a2c
-0,       1901,       1901,        0,   126720, 0xb2b5a7d3
-0,       1935,       1935,        0,   126720, 0x32d7a26d
-0,       1968,       1968,        0,   126720, 0x0bffd118
-0,       2001,       2001,        0,   126720, 0x2eed823a
-0,       2035,       2035,        0,   126720, 0xc4c0147c
-0,       2068,       2068,        0,   126720, 0x1f8bf8ac
-0,       2102,       2102,        0,   126720, 0xfcb715e8
-0,       2135,       2135,        0,   126720, 0xc3e9fa9c
-0,       2168,       2168,        0,   126720, 0x9ad8572c
-0,       2202,       2202,        0,   126720, 0x2800596d
-0,       2235,       2235,        0,   126720, 0x3caa5094
-0,       2268,       2268,        0,   126720, 0x6162e000
-0,       2302,       2302,        0,   126720, 0x18200f2c
-0,       2335,       2335,        0,   126720, 0x649e699f
-0,       2369,       2369,        0,   126720, 0x5f513367
-0,       2402,       2402,        0,   126720, 0x71fbf4a8
-0,       2435,       2435,        0,   126720, 0x5bff7b97
-0,       2469,       2469,        0,   126720, 0xbad453d4
-0,       2502,       2502,        0,   126720, 0x56e6161d
-0,       2535,       2535,        0,   126720, 0x524f2980
-0,       2569,       2569,        0,   126720, 0x0589405a
-0,       2602,       2602,        0,   126720, 0x5c264043
-0,       2635,       2635,        0,   126720, 0x2394696f
-0,       2669,       2669,        0,   126720, 0x1aa0cd15
-0,       2702,       2702,        0,   126720, 0xd6ec7840
-0,       2736,       2736,        0,   126720, 0xde5531f0
-0,       2769,       2769,        0,   126720, 0x03a42c3a
-0,       2802,       2802,        0,   126720, 0xbdee0efb
-0,       2836,       2836,        0,   126720, 0xa6012736
-0,       2869,       2869,        0,   126720, 0x448f5ae6
-0,       2902,       2902,        0,   126720, 0x8a2550c3
-0,       2936,       2936,        0,   126720, 0x143104e7
-0,       2969,       2969,        0,   126720, 0x75db363d
-0,       3002,       3002,        0,   126720, 0x906d2f9d
-0,       3036,       3036,        0,   126720, 0xfc7b30ab
-0,       3069,       3069,        0,   126720, 0xd3edaa62
-0,       3103,       3103,        0,   126720, 0x6267f3fc
-0,       3136,       3136,        0,   126720, 0x87b6c67f
-0,       3169,       3169,        0,   126720, 0x84da3b79
-0,       3203,       3203,        0,   126720, 0x72fbae15
-0,       3236,       3236,        0,   126720, 0xb8474a80
-0,       3269,       3269,        0,   126720, 0xbeae088b
-0,       3303,       3303,        0,   126720, 0x538b1a14
-0,       3336,       3336,        0,   126720, 0x07bbddcd
-0,       3370,       3370,        0,   126720, 0x807ddf8f
-0,       3403,       3403,        0,   126720, 0x325bb46d
-0,       3436,       3436,        0,   126720, 0xd80c2f2a
-0,       3470,       3470,        0,   126720, 0xfc1b0dec
-0,       3503,       3503,        0,   126720, 0x46068ebc
-0,       3536,       3536,        0,   126720, 0xcd987941
-0,       3570,       3570,        0,   126720, 0x52f37f2e
-0,       3603,       3603,        0,   126720, 0xc96931a2
avconv version v13_dev0-1218-g95ce02b, Copyright (c) 2000-2017 the Libav developers
  built on Jul 17 2017 06:11:03 with gcc 8.0.0 (GCC) 20170717 (experimental)
[rm @ 0x136f900] Unsupported stream type 0000027c
[rm @ 0x136f900] Could not find codec parameters (Data: [0][0][0][0] / 0x0000)
Input #0, rm, from '/home/mik/src/fate/fate-suite/real/rv30.rm':
  Metadata:
    title           : blowfish-toons.com @ cosmos
    author          : blowfish-toons.com @ cosmos
    copyright       : blowfish-toons.com @ cosmos
    comment         : 
  Duration: 00:22:30.47, start: 0.000000, bitrate: 1 kb/s
    Stream #0:0: Audio: cook [cook / 0x6B6F6F63]
      44100 Hz, mono, fltp, 64 kb/s
    Stream #0:1: Video: rv30 [RV30 / 0x30335652]
      yuv420p, 352x240, 385 kb/s
      29.97 fps, 1k tbn
    Stream #0:2: Data: [0][0][0][0] / 0x0000
Stream mapping:
  Stream #0:1 -> #0:0 (rv30 (native) -> rawvideo (native))
Press ctrl-c to stop encoding
Output #0, framecrc, to 'pipe:':
  Metadata:
    title           : blowfish-toons.com @ cosmos
    author          : blowfish-toons.com @ cosmos
    copyright       : blowfish-toons.com @ cosmos
    comment         : 
    encoder         : Lavf58.0.0
    Stream #0:0: Video: rawvideo [I420 / 0x30323449]
      yuv420p, 352x240, q=2-31, 200 kb/s
      1k tbn
    Metadata:
      encoder         : Lavc58.4.0 rawvideo
/home/mik/src/fate/fate-suite/real/rv30.rm: Input/output error
frame=   25 fps=  0 q=-0.0 Lsize=       1kB time=0.80 bitrate=  14.6kbits/s    
video:3094kB audio:0kB other streams:0kB global headers:0kB muxing overhead: unknown
diffstderrrv401v13_dev0-1300-gac6691ab9
--- /home/mik/src/fate/src/tests/ref/fate/rv40	2016-12-02 12:33:32.354169000 -0800
+++ tests/data/fate/rv40	2017-07-17 06:13:27.863592000 -0700
@@ -1,240 +0,0 @@
-#tb 0: 1/1000
-0,        -41,        -41,        0,   276480, 0x5f7a0d4f
-0,         42,         42,        0,   276480, 0x5f7a0d4f
-0,         83,         83,        0,   276480, 0x5f7a0d4f
-0,        125,        125,        0,   276480, 0x5f7a0d4f
-0,        167,        167,        0,   276480, 0x5f7a0d4f
-0,        209,        209,        0,   276480, 0x5f7a0d4f
-0,        250,        250,        0,   276480, 0x5f7a0d4f
-0,        292,        292,        0,   276480, 0x5f7a0d4f
-0,        334,        334,        0,   276480, 0x5f7a0d4f
-0,        375,        375,        0,   276480, 0x5f7a0d4f
-0,        417,        417,        0,   276480, 0x5f7a0d4f
-0,        459,        459,        0,   276480, 0x5f7a0d4f
-0,        501,        501,        0,   276480, 0x5f7a0d4f
-0,        542,        542,        0,   276480, 0x5f7a0d4f
-0,        584,        584,        0,   276480, 0x5f7a0d4f
-0,        626,        626,        0,   276480, 0x5f7a0d4f
-0,        667,        667,        0,   276480, 0x5f7a0d4f
-0,        709,        709,        0,   276480, 0x5f7a0d4f
-0,        751,        751,        0,   276480, 0x5f7a0d4f
-0,        792,        792,        0,   276480, 0x5f7a0d4f
-0,        834,        834,        0,   276480, 0x5f7a0d4f
-0,        876,        876,        0,   276480, 0x5f7a0d4f
-0,        918,        918,        0,   276480, 0x5f7a0d4f
-0,        959,        959,        0,   276480, 0x5f7a0d4f
-0,       1001,       1001,        0,   276480, 0x5f7a0d4f
-0,       1043,       1043,        0,   276480, 0x5f7a0d4f
-0,       1084,       1084,        0,   276480, 0x5f7a0d4f
-0,       1126,       1126,        0,   276480, 0x5f7a0d4f
-0,       1168,       1168,        0,   276480, 0x5f7a0d4f
-0,       1210,       1210,        0,   276480, 0x5f7a0d4f
-0,       1251,       1251,        0,   276480, 0x5f7a0d4f
-0,       1293,       1293,        0,   276480, 0x5f7a0d4f
-0,       1335,       1335,        0,   276480, 0x5f7a0d4f
-0,       1376,       1376,        0,   276480, 0x75641594
-0,       1418,       1418,        0,   276480, 0x32ee3526
-0,       1460,       1460,        0,   276480, 0xcb53479a
-0,       1502,       1502,        0,   276480, 0x7ca9658e
-0,       1543,       1543,        0,   276480, 0x5ce39368
-0,       1585,       1585,        0,   276480, 0x4ec1e418
-0,       1627,       1627,        0,   276480, 0xb3790499
-0,       1668,       1668,        0,   276480, 0xa9f1506f
-0,       1710,       1710,        0,   276480, 0x85cbc3b5
-0,       1752,       1752,        0,   276480, 0x377c7b46
-0,       1793,       1793,        0,   276480, 0x1a61d8db
-0,       1835,       1835,        0,   276480, 0xe1de7f0a
-0,       1877,       1877,        0,   276480, 0x756a4a2e
-0,       1919,       1919,        0,   276480, 0xcb379547
-0,       1960,       1960,        0,   276480, 0xbae14484
-0,       2002,       2002,        0,   276480, 0x8e12331c
-0,       2044,       2044,        0,   276480, 0x99c085be
-0,       2085,       2085,        0,   276480, 0xe479ffed
-0,       2127,       2127,        0,   276480, 0x99c82949
-0,       2169,       2169,        0,   276480, 0xac7672dd
-0,       2211,       2211,        0,   276480, 0x1e4fae19
-0,       2252,       2252,        0,   276480, 0x776412ef
-0,       2294,       2294,        0,   276480, 0x7d9b579f
-0,       2336,       2336,        0,   276480, 0x1cd1ab29
-0,       2377,       2377,        0,   276480, 0x58ce0f38
-0,       2419,       2419,        0,   276480, 0x5ab69b27
-0,       2461,       2461,        0,   276480, 0x0afad610
-0,       2503,       2503,        0,   276480, 0x9eca3f11
-0,       2544,       2544,        0,   276480, 0xc3db9706
-0,       2586,       2586,        0,   276480, 0xc9c57884
-0,       2628,       2628,        0,   276480, 0xd9fbb2cf
-0,       2669,       2669,        0,   276480, 0xdc07f3c9
-0,       2711,       2711,        0,   276480, 0x000b5269
-0,       2753,       2753,        0,   276480, 0x27ff7a5d
-0,       2794,       2794,        0,   276480, 0xd92e2017
-0,       2836,       2836,        0,   276480, 0x18d4b27d
-0,       2878,       2878,        0,   276480, 0x70647530
-0,       2920,       2920,        0,   276480, 0x97612c4b
-0,       2961,       2961,        0,   276480, 0xc9d4ac78
-0,       3003,       3003,        0,   276480, 0x4ec4d57f
-0,       3045,       3045,        0,   276480, 0xdf4e04d7
-0,       3086,       3086,        0,   276480, 0xbd98f57c
-0,       3128,       3128,        0,   276480, 0x7247ea3e
-0,       3170,       3170,        0,   276480, 0xa5d670ec
-0,       3212,       3212,        0,   276480, 0x5163b29b
-0,       3253,       3253,        0,   276480, 0x99170e64
-0,       3295,       3295,        0,   276480, 0x37f4c0b0
-0,       3337,       3337,        0,   276480, 0x7a4f2561
-0,       3378,       3378,        0,   276480, 0x8a4e991f
-0,       3420,       3420,        0,   276480, 0x6a45425f
-0,       3462,       3462,        0,   276480, 0x1f0e2bb6
-0,       3504,       3504,        0,   276480, 0xd75482c6
-0,       3545,       3545,        0,   276480, 0x7bf6b1ef
-0,       3587,       3587,        0,   276480, 0x6de1e34b
-0,       3629,       3629,        0,   276480, 0x4526c89b
-0,       3670,       3670,        0,   276480, 0xf964e18e
-0,       3712,       3712,        0,   276480, 0xdcaaa99a
-0,       3754,       3754,        0,   276480, 0xd1e98808
-0,       3795,       3795,        0,   276480, 0x556b2365
-0,       3837,       3837,        0,   276480, 0x0cf65540
-0,       3879,       3879,        0,   276480, 0x6e2d524e
-0,       3921,       3921,        0,   276480, 0x22c50a3d
-0,       3962,       3962,        0,   276480, 0x293f19af
-0,       4004,       4004,        0,   276480, 0xf4b1c461
-0,       4046,       4046,        0,   276480, 0x62b76407
-0,       4087,       4087,        0,   276480, 0x51e9b3eb
-0,       4129,       4129,        0,   276480, 0x7b910bc7
-0,       4171,       4171,        0,   276480, 0x6dd14ca6
-0,       4213,       4213,        0,   276480, 0x441f7afd
-0,       4254,       4254,        0,   276480, 0xfb01efc6
-0,       4296,       4296,        0,   276480, 0x4f73ccea
-0,       4338,       4338,        0,   276480, 0x5ac8e06f
-0,       4379,       4379,        0,   276480, 0x294bb441
-0,       4421,       4421,        0,   276480, 0xe04ac45e
-0,       4463,       4463,        0,   276480, 0xa7a38d41
-0,       4505,       4505,        0,   276480, 0xf688a3ed
-0,       4546,       4546,        0,   276480, 0x58f275ea
-0,       4588,       4588,        0,   276480, 0xf0b3b71b
-0,       4630,       4630,        0,   276480, 0x3ce773bf
-0,       4671,       4671,        0,   276480, 0x01840548
-0,       4713,       4713,        0,   276480, 0x674e34e4
-0,       4755,       4755,        0,   276480, 0x41dda2d9
-0,       4796,       4796,        0,   276480, 0xc5b60838
-0,       4838,       4838,        0,   276480, 0x9b209f41
-0,       4880,       4880,        0,   276480, 0xf46ba7fb
-0,       4922,       4922,        0,   276480, 0x28b54815
-0,       4963,       4963,        0,   276480, 0xb605a933
-0,       5005,       5005,        0,   276480, 0x34484aff
-0,       5047,       5047,        0,   276480, 0xaf2b5d89
-0,       5088,       5088,        0,   276480, 0x8facba58
-0,       5130,       5130,        0,   276480, 0xbbe3e99f
-0,       5172,       5172,        0,   276480, 0x02162c7c
-0,       5214,       5214,        0,   276480, 0x28a63236
-0,       5255,       5255,        0,   276480, 0x1ad43fd7
-0,       5297,       5297,        0,   276480, 0xe37883e5
-0,       5339,       5339,        0,   276480, 0x2b8a89c5
-0,       5380,       5380,        0,   276480, 0x71507bd2
-0,       5422,       5422,        0,   276480, 0x35626022
-0,       5464,       5464,        0,   276480, 0x461fc3e7
-0,       5506,       5506,        0,   276480, 0xce5af1ec
-0,       5547,       5547,        0,   276480, 0x7c1139b3
-0,       5589,       5589,        0,   276480, 0x7fd73a99
-0,       5631,       5631,        0,   276480, 0x4ae4c3a6
-0,       5672,       5672,        0,   276480, 0xcb60725a
-0,       5714,       5714,        0,   276480, 0xb52e1aa2
-0,       5756,       5756,        0,   276480, 0xd6f82cae
-0,       5797,       5797,        0,   276480, 0x6310e665
-0,       5839,       5839,        0,   276480, 0xfa88a483
-0,       5881,       5881,        0,   276480, 0xf88f75d4
-0,       5923,       5923,        0,   276480, 0x04a8e3ee
-0,       5964,       5964,        0,   276480, 0x54766a12
-0,       6006,       6006,        0,   276480, 0x0b41f0d7
-0,       6048,       6048,        0,   276480, 0xa29f5b01
-0,       6089,       6089,        0,   276480, 0x754ceaf5
-0,       6131,       6131,        0,   276480, 0x150c0423
-0,       6173,       6173,        0,   276480, 0xde084059
-0,       6215,       6215,        0,   276480, 0x5a38b4af
-0,       6256,       6256,        0,   276480, 0xfcebc261
-0,       6298,       6298,        0,   276480, 0x0eb9770d
-0,       6340,       6340,        0,   276480, 0x046394ae
-0,       6381,       6381,        0,   276480, 0x3d3ca985
-0,       6423,       6423,        0,   276480, 0x94a03c75
-0,       6465,       6465,        0,   276480, 0x800eea2d
-0,       6507,       6507,        0,   276480, 0x6a841f41
-0,       6548,       6548,        0,   276480, 0x2f98911c
-0,       6590,       6590,        0,   276480, 0x923b9937
-0,       6632,       6632,        0,   276480, 0xe82f8e0f
-0,       6673,       6673,        0,   276480, 0xee82d657
-0,       6715,       6715,        0,   276480, 0xefab7ffd
-0,       6757,       6757,        0,   276480, 0x6b9fbc80
-0,       6798,       6798,        0,   276480, 0x4a1ada47
-0,       6840,       6840,        0,   276480, 0x6d4b49d7
-0,       6882,       6882,        0,   276480, 0xe4bdbd1e
-0,       6924,       6924,        0,   276480, 0x225a56c0
-0,       6965,       6965,        0,   276480, 0xd4adadad
-0,       7007,       7007,        0,   276480, 0xff4e1a8c
-0,       7049,       7049,        0,   276480, 0xf58b1b7c
-0,       7090,       7090,        0,   276480, 0xbaffcdcc
-0,       7132,       7132,        0,   276480, 0x374f88f0
-0,       7174,       7174,        0,   276480, 0x3d861ae6
-0,       7216,       7216,        0,   276480, 0xeb6eb88f
-0,       7257,       7257,        0,   276480, 0xdb753d35
-0,       7299,       7299,        0,   276480, 0x9aa543af
-0,       7341,       7341,        0,   276480, 0xb24c8016
-0,       7382,       7382,        0,   276480, 0xea80a82e
-0,       7424,       7424,        0,   276480, 0x2aae902a
-0,       7466,       7466,        0,   276480, 0x5bba3cfb
-0,       7508,       7508,        0,   276480, 0x5c6e97a9
-0,       7549,       7549,        0,   276480, 0x9b9ee961
-0,       7591,       7591,        0,   276480, 0xaa12b6fd
-0,       7633,       7633,        0,   276480, 0xe9d2439f
-0,       7674,       7674,        0,   276480, 0xbf09053c
-0,       7716,       7716,        0,   276480, 0x50c31e73
-0,       7758,       7758,        0,   276480, 0xdd9fb89f
-0,       7799,       7799,        0,   276480, 0x3e4e5aec
-0,       7841,       7841,        0,   276480, 0x0b752d28
-0,       7883,       7883,        0,   276480, 0xaf82399a
-0,       7925,       7925,        0,   276480, 0x7ce5f23c
-0,       7966,       7966,        0,   276480, 0xad135d0f
-0,       8008,       8008,        0,   276480, 0x55dadd30
-0,       8050,       8050,        0,   276480, 0x5aaa7519
-0,       8091,       8091,        0,   276480, 0xe45a5599
-0,       8133,       8133,        0,   276480, 0xc8e89913
-0,       8175,       8175,        0,   276480, 0x2f447fd3
-0,       8217,       8217,        0,   276480, 0x704411fb
-0,       8258,       8258,        0,   276480, 0x9d7430a1
-0,       8300,       8300,        0,   276480, 0x24dd5fd3
-0,       8342,       8342,        0,   276480, 0x51cb657c
-0,       8383,       8383,        0,   276480, 0x2c230702
-0,       8425,       8425,        0,   276480, 0x4a4f76cd
-0,       8467,       8467,        0,   276480, 0xdcd71e88
-0,       8509,       8509,        0,   276480, 0x87160f99
-0,       8550,       8550,        0,   276480, 0x27f54854
-0,       8592,       8592,        0,   276480, 0x694d76e3
-0,       8634,       8634,        0,   276480, 0xcbe93c19
-0,       8675,       8675,        0,   276480, 0x50742e1b
-0,       8717,       8717,        0,   276480, 0x525463e2
-0,       8759,       8759,        0,   276480, 0x819898f9
-0,       8800,       8800,        0,   276480, 0x08fac755
-0,       8842,       8842,        0,   276480, 0x35c46927
-0,       8884,       8884,        0,   276480, 0xeeed00fc
-0,       8926,       8926,        0,   276480, 0xb6f99ee3
-0,       8967,       8967,        0,   276480, 0xd87f4c73
-0,       9009,       9009,        0,   276480, 0xde97d9fd
-0,       9051,       9051,        0,   276480, 0xefc83107
-0,       9092,       9092,        0,   276480, 0xbb22e024
-0,       9134,       9134,        0,   276480, 0x53a7cfcb
-0,       9176,       9176,        0,   276480, 0xbe1fbb19
-0,       9218,       9218,        0,   276480, 0x300f922a
-0,       9259,       9259,        0,   276480, 0x826fc3bd
-0,       9301,       9301,        0,   276480, 0x679aa57a
-0,       9343,       9343,        0,   276480, 0x5497097b
-0,       9384,       9384,        0,   276480, 0x679a53f8
-0,       9426,       9426,        0,   276480, 0x976c9e93
-0,       9468,       9468,        0,   276480, 0xe80f87f2
-0,       9510,       9510,        0,   276480, 0xdc2d7c6c
-0,       9551,       9551,        0,   276480, 0xb194656e
-0,       9593,       9593,        0,   276480, 0xf002c5ca
-0,       9635,       9635,        0,   276480, 0x43fc1c64
-0,       9676,       9676,        0,   276480, 0xf62d8581
-0,       9718,       9718,        0,   276480, 0xb243dda5
-0,       9760,       9760,        0,   276480, 0x1700efbb
-0,       9801,       9801,        0,   276480, 0x9ebe6ba2
-0,       9843,       9843,        0,   276480, 0x8f316c66
-0,       9885,       9885,        0,   276480, 0x6348ecf5
-0,       9927,       9927,        0,   276480, 0x34b5b78a
avconv version v13_dev0-1218-g95ce02b, Copyright (c) 2000-2017 the Libav developers
  built on Jul 17 2017 06:11:03 with gcc 8.0.0 (GCC) 20170717 (experimental)
[rm @ 0x17af8c0] Unsupported stream type 00000178
[rm @ 0x17af8c0] max_analyze_duration 5000000 reached
Input #0, rm, from '/home/mik/src/fate/fate-suite/real/spygames-2MB.rmvb':
  Metadata:
    title           : 
    author          : 
    copyright       : 
    comment         : 
  Duration: 02:01:27.34, start: 0.000000, bitrate: 2 kb/s
    Stream #0:0: Audio: cook [cook / 0x6B6F6F63]
      44100 Hz, stereo, fltp, 96 kb/s
    Stream #0:1: Video: rv40 [RV40 / 0x30345652]
      yuv420p, 576x320, 700 kb/s
      23.98 fps, 1k tbn
    Stream #0:2: Data: [0][0][0][0] / 0x0000
Stream mapping:
  Stream #0:1 -> #0:0 (rv40 (native) -> rawvideo (native))
Press ctrl-c to stop encoding
/home/mik/src/fate/fate-suite/real/spygames-2MB.rmvb: Input/output error
Video encoding failed